Uriah Heep – …Very ‘Eavy …Very ‘Umble




[Total: 0    Average: 0/5]

Artist: Uriah Heep
Year: 1970/1990
Genre: Rock
Notes: Discogs
Add. Notes:
Cover incl.: Yes
Encoder: FLAC
Bitrate: ~800 kBit/s (44.1 kHz/16 Bit/s)
Log & Cue incl.: Yes
Size: 321,87 MB
Password: “slam” (without ” “)


All Downloads/Hosters are compatible

Download 1
Share-online.biz
Rapidgator.net
KatFile.com
UploadRar.com
Download 2
Share-online.biz
Rapidgator.net
KatFile.com
UploadRar.com

Tracklist:

1 - Gypsy - 6:36
2 - Walking In Your Shadow - 4:30
3 - Come Away Melinda - 3:46
4 - Lucy Blues - 5:08
5 - Dreammare - 4:39
6 - Real Turned On - 3:38
7 - I'll Keep On Trying - 5:27
8 - Wake Up (Set Your Sights) - 6:21

EAC-Log, CUE-Sheed & NFO:

Click to open spoiler
Exact Audio Copy V0.99 prebeta 5 from 4. May 2009

Отчёт EAC об извлечении, выполненном 18. апреля 2011, 16:57

Uriah Heep / …Very ‘eavy …Very ‘umble

Дисковод: Optiarc DVD RW AD-7240S Adapter: 1 ID: 0

Режим чтения : Достоверность
Использование точного потока : Да
Отключение кэша аудио : Да
Использование указателей C2 : Нет

Коррекция смещения при чтении : 48
Способность читать области Lead-in и Lead-out : Нет
Заполнение пропущенных сэмплов тишиной : Да
Удаление блоков с тишиной в начале и конце : Нет
При вычислениях CRC использовались нулевые сэмплы : Да
Интерфейс : Встроенный Win32-интерфейс для Win NT/2000

Выходной формат : Пользовательский кодировщик
Выбранный битрейт : 768 kBit/s
Качество : Высокий
Добавление ID3-тэга : Нет
Утилита сжатия : C:\Program Files\Exact Audio Copy\FLAC\FLAC.EXE
Дополнительные параметры : -6 -V -T “ARTIST=%a” -T “TITLE=%t” -T “ALBUM=%g” -T “DATE=%y” -T “TRACKNUMBER=%n” -T “GENRE=%m” -T “COMMENT=%e” %s -o %d

TOC извлечённого CD

Трек | Старт | Длительность | Начальный сектор | Конечный сектор
———————————————————————
1 | 0:00.33 | 6:38.67 | 33 | 29949
2 | 6:39.25 | 4:34.35 | 29950 | 50534
3 | 11:13.60 | 3:45.50 | 50535 | 67459
4 | 14:59.35 | 5:08.40 | 67460 | 90599
5 | 20:08.00 | 4:39.45 | 90600 | 111569
6 | 24:47.45 | 3:41.13 | 111570 | 128157
7 | 28:28.58 | 5:28.05 | 128158 | 152762
8 | 33:56.63 | 6:20.60 | 152763 | 181322

Характеристики диапазона извлечения и сообщения об ошибках

Выбранный диапазон

Имя файла E:\music\Uriah Heep\1970. …very ‘eavy …very ‘umble\1970. …very ‘eavy …very ‘umble (Castle CLACD 105, France)\Uriah Heep – …Very ‘eavy …Very ‘umble.wav

Пиковый уровень 100.0 %
Качество диапазона 99.9 %
CRC теста 60874D87
CRC копии 60874D87
Копирование… OK

Ошибок не произошло

AccurateRip: сводка

Трек 1 точность не определена (достоверность 18) [6D0675E3], AccurateRip вернул [321BC2A4]
Трек 2 точное извлечение (доверие 2) [F6AEC5EF]
Трек 3 точное извлечение (доверие 2) [3F2ADB21]
Трек 4 точное извлечение (доверие 2) [5B23BBAC]
Трек 5 точное извлечение (доверие 2) [F28CB549]
Трек 6 точность не определена (достоверность 18) [58AC2E15], AccurateRip вернул [4C756641]
Трек 7 точность не определена (достоверность 18) [4AF80919], AccurateRip вернул [554C2825]
Трек 8 точное извлечение (доверие 2) [624B97EF]

5 трек(и) скопированы точно
3 трек(и) не удалось проверить на точность

Некоторые треки не прошли проверку на точность

Конец отчёта

REM GENRE Rock
REM DATE 1970
REM DISCID 53097108
REM COMMENT “ExactAudioCopy v0.99pb5”
PERFORMER “Uriah Heep”
TITLE “…Very ‘eavy …Very ‘umble”
FILE “Uriah Heep – …Very ‘eavy …Very ‘umble.flac” WAVE
TRACK 01 AUDIO
TITLE “Gypsy”
PERFORMER “Uriah Heep”
INDEX 00 00:00:00
INDEX 01 00:00:33
TRACK 02 AUDIO
TITLE “Walking In Your Shadow”
PERFORMER “Uriah Heep”
INDEX 00 06:36:60
INDEX 01 06:39:25
TRACK 03 AUDIO
TITLE “Come Away Melinda”
PERFORMER “Uriah Heep”
INDEX 00 11:09:40
INDEX 01 11:13:60
TRACK 04 AUDIO
TITLE “Lucy Blues”
PERFORMER “Uriah Heep”
INDEX 01 14:59:35
TRACK 05 AUDIO
TITLE “Dreammare”
PERFORMER “Uriah Heep”
INDEX 00 20:05:50
INDEX 01 20:08:00
TRACK 06 AUDIO
TITLE “Real Turned On”
PERFORMER “Uriah Heep”
INDEX 00 24:45:35
INDEX 01 24:47:45
TRACK 07 AUDIO
TITLE “I’ll Keep On Trying”
PERFORMER “Uriah Heep”
INDEX 00 28:25:08
INDEX 01 28:28:58
TRACK 08 AUDIO
TITLE “Wake Up (Set Your Sights)”
PERFORMER “Uriah Heep”
INDEX 00 33:52:50
INDEX 01 33:56:63


Spread the Download

Leave a Reply

Your email address will not be published. Required fields are marked *

Enter the text from the image below
 

This site uses Akismet to reduce spam. Learn how your comment data is processed.