Toy Dolls – Fat Bobs Feet




[Total: 0    Average: 0/5]

Artist: Toy Dolls
Year: 1991
Genre: Oi
Notes: Discogs
Add. Notes:
Cover incl.: Yes
Encoder: FLAC
Bitrate: ~900 kBit/s (44.1 kHz/16 Bit/s)
Log & Cue incl.: Yes
Size: 233,07 MB
Password: “slam” (without ” “)


All Downloads/Hosters are compatible

Download 1
Share-online.biz
Rapidgator.net
KatFile.com
UploadRar.com
Download 2
Share-online.biz
Rapidgator.net
KatFile.com
UploadRar.com

Tracklist:

1 - Gloomy Intro / Toy Doll Tonic - 0:55
2 - Fat Bob's Feet! - 2:45
3 - We Quit The Cavalry - 2:59
4 - The Sphinx Stinks - 2:18
5 - Rodney's Memory - 2:35
6 - Olga Crack Corn - 1:09
7 - Bitten By A Bed Bug! - 3:02
8 - Kids In Tyne & Wear - 3:15
9 - Frankie's Got The Blues - 2:35
10 - A Bunch O'Fairies - 2:43
11 - Yellow Burt - 1:05
12 - Back In '79 - 2:51
13 - The Coppers Copt Ken's Cash! - 2:30
14 - Toy Doll Tonic / Gloomy Outro - 1:22
+ Extra Free Track
15 - Turtle Crazy! - 2:45

EAC-Log, CUE-Sheed & NFO:

Click to open spoiler
EAC extraction logfile from 28. May 2006, 15:51 for CD
Toy Dolls / Fat Bobs Feet

Used drive : HL-DT-STDVDRAM GSA-H10A Adapter: 0 ID: 0
Read mode : Secure with NO C2, accurate stream, disable cache
Read offset correction : 667
Overread into Lead-In and Lead-Out : No

Used output format : C:\Program Files\Exact Audio Copy\MAC.exe (Monkey’s Audio Lossless Encoder)
High Lossless Compression

Other options :
Fill up missing offset samples with silence : Yes
Delete leading and trailing silent blocks : No
Installed external ASPI interface

Range status and errors
Selected range
Filename C:\Documents and Settings\M\Plocha\TD- fat\Toy Dolls – Fat Bobs Feet.wav.wav

Peak level 100.0 %
Range quality 100.0 %
CRC 937C3077
Copy OK

No errors occured

End of status report

REM GENRE Punk
REM DATE 1991
REM DISCID C308310F
REM COMMENT “ExactAudioCopy v0.95b4”
PERFORMER “Toy Dolls”
TITLE “Fat Bobs Feet”
FILE “Toy Dolls – Fat Bobs Feet.wav.ape” WAVE
TRACK 01 AUDIO
TITLE “Gloomy Intro / Toy Doll Tonic”
PERFORMER “Toy Dolls”
FLAGS PRE
INDEX 00 00:00:00
INDEX 01 00:00:33
TRACK 02 AUDIO
TITLE “Fat Bob’s Feet!”
PERFORMER “Toy Dolls”
FLAGS PRE
INDEX 00 00:55:68
INDEX 01 00:55:70
TRACK 03 AUDIO
TITLE “We Quit The Cavalry”
PERFORMER “Toy Dolls”
FLAGS PRE
INDEX 00 03:42:05
INDEX 01 03:42:08
TRACK 04 AUDIO
TITLE “The Sphinx Stinks”
PERFORMER “Toy Dolls”
FLAGS PRE
INDEX 00 06:41:43
INDEX 01 06:41:45
TRACK 05 AUDIO
TITLE “Rodney’s Memory”
PERFORMER “Toy Dolls”
FLAGS PRE
INDEX 00 09:00:43
INDEX 01 09:00:45
TRACK 06 AUDIO
TITLE “Olga Crack Corn”
PERFORMER “Toy Dolls”
FLAGS PRE
INDEX 00 11:36:03
INDEX 01 11:36:05
TRACK 07 AUDIO
TITLE “Bitten By A Bed Bug!”
PERFORMER “Toy Dolls”
FLAGS PRE
INDEX 00 12:45:43
INDEX 01 12:45:45
TRACK 08 AUDIO
TITLE “Kids In Tyne & Wear”
PERFORMER “Toy Dolls”
FLAGS PRE
INDEX 00 15:47:30
INDEX 01 15:47:33
TRACK 09 AUDIO
TITLE “Frankie’s Got The Blues”
PERFORMER “Toy Dolls”
FLAGS PRE
INDEX 00 19:03:05
INDEX 01 19:03:08
TRACK 10 AUDIO
TITLE “A Bunch O’ Fairies”
PERFORMER “Toy Dolls”
FLAGS PRE
INDEX 00 21:39:05
INDEX 01 21:39:08
TRACK 11 AUDIO
TITLE “Yellow Burt”
PERFORMER “Toy Dolls”
FLAGS PRE
INDEX 00 24:22:43
INDEX 01 24:22:45
TRACK 12 AUDIO
TITLE “Back In ’79”
PERFORMER “Toy Dolls”
FLAGS PRE
INDEX 00 25:27:55
INDEX 01 25:27:58
TRACK 13 AUDIO
TITLE “The Coppers Copt Ken’s Cash!”
PERFORMER “Toy Dolls”
FLAGS PRE
INDEX 00 28:19:60
INDEX 01 28:19:63
TRACK 14 AUDIO
TITLE “Toy Doll Tonic / Gloomy Outro”
PERFORMER “Toy Dolls”
FLAGS PRE
INDEX 00 30:50:10
INDEX 01 30:50:13
TRACK 15 AUDIO
TITLE “Turtle Crazy! (extra free track)”
PERFORMER “Toy Dolls”
FLAGS PRE
INDEX 00 32:11:70
INDEX 01 32:12:33


Spread the Download

Leave a Reply

Your email address will not be published. Required fields are marked *

Enter the text from the image below
 

This site uses Akismet to reduce spam. Learn how your comment data is processed.