The Undertones – Hypnotised




[Total: 0    Average: 0/5]

Artist: The Undertones
Year: 1980/1994
Genre: Punk
Notes: Discogs
Add. Notes:
Cover incl.: Yes
Encoder: FLAC
Bitrate: ~900 kBit/s (44.1 kHz/16 Bit/s)
Log & Cue incl.: Yes
Size: 334,42 MB
Password: “slam” (without ” “)


All Downloads/Hosters are compatible

Download 1
Share-online.biz
Rapidgator.net
KatFile.com
UploadRar.com
Download 2
Share-online.biz
Rapidgator.net
KatFile.com
UploadRar.com

Tracklist:

1 - More Songs About Chocolate And Girls - 2:39
2 - There Goes Norman - 2:39
3 - Hypnotised - 2:29
4 - See That Girl - 2:22
5 - Whizz Kids - 2:17
6 - Under The Boardwalk - 2:25
7 - The Way Girls Talk - 2:29
8 - Hard Luck - 3:39
9 - My Perfect Cousin - 2:36
10 - Boys Will Be Boys - 1:27
11 - Tearproof - 2:19
12 - Wednesday Week - 2:16
13 - Nine Times Out Of Ten - 2:35
14 - Girls That Don't Talk - 2:25
15 - What's With Terry? - 3:13
Bonus Tracks
16 - You've Got My Number (Why Don't You Use It) - 2:37
17 - Hard Luck (Again) - 4:09
18 - Let's Talk About Girls - 3:36
19 - I Told You So - 2:06
20 - I Don't Wanna See You Again - 0:45

EAC-Log, CUE-Sheed & NFO:

Click to open spoiler
Exact Audio Copy V1.0 beta 3 from 29. August 2011

EAC extraction logfile from 28. January 2015, 16:27

The Undertones / Hypnotised

Used drive : ATAPI iHAS124 B Adapter: 1 ID: 1

Read mode : Secure
Utilize accurate stream : Yes
Defeat audio cache : Yes
Make use of C2 pointers : No

Read offset correction : 6
Overread into Lead-In and Lead-Out : No
Fill up missing offset samples with silence : Yes
Delete leading and trailing silent blocks : No
Null samples used in CRC calculations : Yes
Used interface : Installed external ASPI interface

Used output format : User Defined Encoder
Selected bitrate : 1024 kBit/s
Quality : High
Add ID3 tag : No
Command line compressor : C:\Program Files\FLAC\flac.exe
Additional command line options : -V -8 -T “Date=%year%” -T “Genre=%genre%” %source%

TOC of the extracted CD

Track | Start | Length | Start sector | End sector
———————————————————
1 | 0:00.00 | 2:43.37 | 0 | 12261
2 | 2:43.37 | 2:27.42 | 12262 | 23328
3 | 5:11.04 | 2:31.12 | 23329 | 34665
4 | 7:42.16 | 2:24.55 | 34666 | 45520
5 | 10:06.71 | 2:19.45 | 45521 | 55990
6 | 12:26.41 | 2:26.39 | 55991 | 66979
7 | 14:53.05 | 2:30.42 | 66980 | 78271
8 | 17:23.47 | 3:41.63 | 78272 | 94909
9 | 21:05.35 | 2:36.06 | 94910 | 106615
10 | 23:41.41 | 1:27.13 | 106616 | 113153
11 | 25:08.54 | 2:21.09 | 113154 | 123737
12 | 27:29.63 | 2:17.03 | 123738 | 134015
13 | 29:46.66 | 2:37.64 | 134016 | 145854
14 | 32:24.55 | 2:26.63 | 145855 | 156867
15 | 34:51.43 | 3:18.34 | 156868 | 171751
16 | 38:10.02 | 2:37.57 | 171752 | 183583
17 | 40:47.59 | 4:10.42 | 183584 | 202375
18 | 44:58.26 | 3:37.34 | 202376 | 218684
19 | 48:35.60 | 2:09.70 | 218685 | 228429
20 | 50:45.55 | 0:47.69 | 228430 | 232023

Range status and errors

Selected range

Filename D:\The Undertones – Hypnotised (1980)\The Undertones – Hypnotised.wav

Peak level 100.0 %
Extraction speed 7.6 X
Range quality 100.0 %
Test CRC C93457DC
Copy CRC C93457DC
Copy OK

No errors occurred

AccurateRip summary

Track 1 not present in database
Track 2 not present in database
Track 3 not present in database
Track 4 not present in database
Track 5 not present in database
Track 6 not present in database
Track 7 not present in database
Track 8 not present in database
Track 9 not present in database
Track 10 not present in database
Track 11 not present in database
Track 12 not present in database
Track 13 not present in database
Track 14 not present in database
Track 15 not present in database
Track 16 not present in database
Track 17 not present in database
Track 18 not present in database
Track 19 not present in database
Track 20 not present in database

None of the tracks are present in the AccurateRip database

End of status report

==== Log checksum 499EDED8F24177703F320965B08ACAE62FCD8D4548CDA25A68D7F95C547372C4 ====

REM GENRE “Punk Rock”
REM DATE 1980
REM DISCID 190C1514
REM COMMENT “ExactAudioCopy v1.0b3”
PERFORMER “The Undertones”
TITLE “Hypnotised”
FILE “The Undertones – Hypnotised.flac” WAVE
TRACK 01 AUDIO
TITLE “More Songs About Chocolate And Girls”
PERFORMER “The Undertones”
FLAGS DCP
INDEX 01 00:00:00
TRACK 02 AUDIO
TITLE “There Goes Norman”
PERFORMER “The Undertones”
FLAGS DCP
INDEX 01 02:43:37
TRACK 03 AUDIO
TITLE “Hypnotised”
PERFORMER “The Undertones”
FLAGS DCP
INDEX 01 05:11:04
TRACK 04 AUDIO
TITLE “See That Girl”
PERFORMER “The Undertones”
FLAGS DCP
INDEX 01 07:42:16
TRACK 05 AUDIO
TITLE “Whizz Kids”
PERFORMER “The Undertones”
FLAGS DCP
INDEX 01 10:06:71
TRACK 06 AUDIO
TITLE “Under The Boardwalk”
PERFORMER “The Undertones”
FLAGS DCP
INDEX 01 12:26:41
TRACK 07 AUDIO
TITLE “The Way Girls Talk”
PERFORMER “The Undertones”
FLAGS DCP
INDEX 01 14:53:05
TRACK 08 AUDIO
TITLE “Hard Luck”
PERFORMER “The Undertones”
FLAGS DCP
INDEX 01 17:23:47
TRACK 09 AUDIO
TITLE “My Perfect Cousin”
PERFORMER “The Undertones”
FLAGS DCP
INDEX 01 21:05:35
TRACK 10 AUDIO
TITLE “Boys Will Be Boys”
PERFORMER “The Undertones”
FLAGS DCP
INDEX 01 23:41:41
TRACK 11 AUDIO
TITLE “Tearproof”
PERFORMER “The Undertones”
FLAGS DCP
INDEX 01 25:08:54
TRACK 12 AUDIO
TITLE “Wednesday Week”
PERFORMER “The Undertones”
FLAGS DCP
INDEX 01 27:29:63
TRACK 13 AUDIO
TITLE “Nine Times Out Of Ten”
PERFORMER “The Undertones”
FLAGS DCP
INDEX 01 29:46:66
TRACK 14 AUDIO
TITLE “Girls That Don’t Talk”
PERFORMER “The Undertones”
FLAGS DCP
INDEX 01 32:24:55
TRACK 15 AUDIO
TITLE “What’s With Terry”
PERFORMER “The Undertones”
FLAGS DCP
INDEX 01 34:51:43
TRACK 16 AUDIO
TITLE “You’ve Got My Number (Why Don’t You Use It)”
PERFORMER “The Undertones”
FLAGS DCP
INDEX 01 38:10:02
TRACK 17 AUDIO
TITLE “Hard Luck (Again)”
PERFORMER “The Undertones”
FLAGS DCP
INDEX 01 40:47:59
TRACK 18 AUDIO
TITLE “Let’s Talk About Girls”
PERFORMER “The Undertones”
FLAGS DCP
INDEX 01 44:58:26
TRACK 19 AUDIO
TITLE “Told You So”
PERFORMER “The Undertones”
FLAGS DCP
INDEX 01 48:35:60
TRACK 20 AUDIO
TITLE “I Don’t Wanna See You Again”
PERFORMER “The Undertones”
FLAGS DCP
INDEX 01 50:45:55


Spread the Download

Leave a Reply

Your email address will not be published. Required fields are marked *

Enter the text from the image below
 

This site uses Akismet to reduce spam. Learn how your comment data is processed.