The Toy Dolls – Wakey Wakey!




[Total: 0    Average: 0/5]

Artist: The Toy Dolls
Year: 1989
Genre: Oi
Notes: Discogs
Add. Notes:
Cover incl.: No
Encoder: FLAC
Bitrate: ~900 kBit/s (44.1 kHz/16 Bit/s)
Log & Cue incl.: Yes
Size: 199,34 MB
Password: “slam” (without ” “)


All Downloads/Hosters are compatible

Download 1
Share-online.biz
Rapidgator.net
KatFile.com
UploadRar.com
Download 2
Share-online.biz
Rapidgator.net
KatFile.com
UploadRar.com

Tracklist:

1 - Introduction - 0:58
2 - Wakey Wakey Intro - 0:22
3 - Lester Fiddled The Tax Man - 2:20
4 - Pot Belly Bill - 3:06
5 - One Night In Moscow (& We'll Be Russian Home!) - 
2:42
6 - Cloughy Is A Bootboy! - 2:51
7 - Sabre Dance - 2:39
8 - Daveys Took The Plunge - 3:33
9 - There's A Trollop Up Elmwood Street - 2:36
10 - No Particular Place To Go - 2:22
11 - Poverty Pleadin' Peter - 2:22
12 - Blaze Of The Borough - 3:11
13 - Wakey Wakey Outro - 1:54
14 - Goodnight Irene - 0:30

EAC-Log, CUE-Sheed & NFO:

Click to open spoiler
Exact Audio Copy V0.99 prebeta 4 from 23. January 2008

EAC extraction logfile from 13. July 2008, 23:55

The Toy Dolls / Wakey Wakey!

Used drive : ASUS DRW-1814BLT Adapter: 3 ID: 1

Read mode : Secure
Utilize accurate stream : Yes
Defeat audio cache : Yes
Make use of C2 pointers : No

Read offset correction : 6
Overread into Lead-In and Lead-Out : No
Fill up missing offset samples with silence : Yes
Delete leading and trailing silent blocks : No
Null samples used in CRC calculations : Yes
Used interface : Native Win32 interface for Win NT & 2000
Gap handling : Appended to previous track

Used output format : User Defined Encoder
Selected bitrate : 256 kBit/s
Quality : High
Add ID3 tag : No
Command line compressor : C:\Program Files\Exact Audio Copy\Flac\flac.exe
Additional command line options : -8 -A tukey(0.25) -A gauss(0.1875) -b 4096 -V -T “artist=%a” -T “title=%t” -T “album=%g” -T “date=%y” -T “tracknumber=%n” -T “genre=%m” %s –sector-align

TOC of the extracted CD

Track | Start | Length | Start sector | End sector
———————————————————
1 | 0:00.00 | 0:57.42 | 0 | 4316
2 | 0:57.42 | 0:21.73 | 4317 | 5964
3 | 1:19.40 | 2:19.40 | 5965 | 16429
4 | 3:39.05 | 3:06.27 | 16430 | 30406
5 | 6:45.32 | 2:42.30 | 30407 | 42586
6 | 9:27.62 | 2:50.63 | 42587 | 55399
7 | 12:18.50 | 2:38.70 | 55400 | 67319
8 | 14:57.45 | 3:33.12 | 67320 | 83306
9 | 18:30.57 | 2:36.00 | 83307 | 95006
10 | 21:06.57 | 2:21.38 | 95007 | 105619
11 | 23:28.20 | 2:21.42 | 105620 | 116236
12 | 25:49.62 | 3:10.38 | 116237 | 130524
13 | 29:00.25 | 1:54.37 | 130525 | 139111
14 | 30:54.62 | 0:29.65 | 139112 | 141351

Track 1

Filename D:\Music [FLAC]\The Toy Dolls\Wakey Wakey! [1989]\01 Introduction.wav

Pre-gap length 0:00:02.00

Peak level 52.9 %
Track quality 100.0 %
Test CRC D16E357E
Copy CRC D16E357E
Copy OK

Track 2

Filename D:\Music [FLAC]\The Toy Dolls\Wakey Wakey! [1989]\02 Wakey Wakey Intro.wav

Peak level 54.5 %
Track quality 100.0 %
Test CRC 568F2CF9
Copy CRC 568F2CF9
Copy OK

Track 3

Filename D:\Music [FLAC]\The Toy Dolls\Wakey Wakey! [1989]\03 Lester Fiddled The Tax Man.wav

Peak level 78.4 %
Track quality 100.0 %
Test CRC 4CA28FC2
Copy CRC 4CA28FC2
Copy OK

Track 4

Filename D:\Music [FLAC]\The Toy Dolls\Wakey Wakey! [1989]\04 Pot Belly Bill.wav

Peak level 87.8 %
Track quality 100.0 %
Test CRC 2D6C4F91
Copy CRC 2D6C4F91
Copy OK

Track 5

Filename D:\Music [FLAC]\The Toy Dolls\Wakey Wakey! [1989]\05 One Night In Moscow (& We’ll Be Russian Home!).wav

Peak level 84.1 %
Track quality 100.0 %
Test CRC 18CF9752
Copy CRC 18CF9752
Copy OK

Track 6

Filename D:\Music [FLAC]\The Toy Dolls\Wakey Wakey! [1989]\06 Cloughy Is A Bootboy!.wav

Peak level 83.5 %
Track quality 100.0 %
Test CRC 2E1BBF10
Copy CRC 2E1BBF10
Copy OK

Track 7

Filename D:\Music [FLAC]\The Toy Dolls\Wakey Wakey! [1989]\07 Sabre Dance.wav

Peak level 67.9 %
Track quality 100.0 %
Test CRC B000B64F
Copy CRC B000B64F
Copy OK

Track 8

Filename D:\Music [FLAC]\The Toy Dolls\Wakey Wakey! [1989]\08 Daveys Took The Plunge.wav

Peak level 68.8 %
Track quality 99.9 %
Test CRC DA0E33C7
Copy CRC DA0E33C7
Copy OK

Track 9

Filename D:\Music [FLAC]\The Toy Dolls\Wakey Wakey! [1989]\09 There`s A Trollop Up Elmwood Street.wav

Peak level 95.4 %
Track quality 100.0 %
Test CRC B3B2C5A3
Copy CRC B3B2C5A3
Copy OK

Track 10

Filename D:\Music [FLAC]\The Toy Dolls\Wakey Wakey! [1989]\10 No Particular Place To Go.wav

Peak level 80.5 %
Track quality 100.0 %
Test CRC 0257714F
Copy CRC 0257714F
Copy OK

Track 11

Filename D:\Music [FLAC]\The Toy Dolls\Wakey Wakey! [1989]\11 Poverty Pleadin’ Peter.wav

Peak level 81.6 %
Track quality 100.0 %
Test CRC 609E93BD
Copy CRC 609E93BD
Copy OK

Track 12

Filename D:\Music [FLAC]\The Toy Dolls\Wakey Wakey! [1989]\12 Blaze Of The Borough.wav

Peak level 84.4 %
Track quality 100.0 %
Test CRC 138278E7
Copy CRC 138278E7
Copy OK

Track 13

Filename D:\Music [FLAC]\The Toy Dolls\Wakey Wakey! [1989]\13 Wakey Wakey Outro.wav

Peak level 80.8 %
Track quality 100.0 %
Test CRC 4A1BD1DA
Copy CRC 4A1BD1DA
Copy OK

Track 14

Filename D:\Music [FLAC]\The Toy Dolls\Wakey Wakey! [1989]\14 Godnight Irene.wav

Peak level 11.8 %
Track quality 99.6 %
Test CRC 82D5FB6B
Copy CRC 82D5FB6B
Copy OK

No errors occurred

End of status report

REM GENRE “Punk Rock”
REM DATE 1989
REM DISCID AC075C0E
REM COMMENT “ExactAudioCopy v0.99pb4”
PERFORMER “The Toy Dolls”
TITLE “Wakey Wakey!”
FILE “The Toy Dolls\Wakey Wakey! [1989]\01 Introduction.wav” WAVE
TRACK 01 AUDIO
TITLE “Introduction”
PERFORMER “The Toy Dolls”
INDEX 01 00:00:00
FILE “The Toy Dolls\Wakey Wakey! [1989]\02 Wakey Wakey Intro.wav” WAVE
TRACK 02 AUDIO
TITLE “Wakey Wakey Intro”
PERFORMER “The Toy Dolls”
INDEX 01 00:00:00
FILE “The Toy Dolls\Wakey Wakey! [1989]\03 Lester Fiddled The Tax Man.wav” WAVE
TRACK 03 AUDIO
TITLE “Lester Fiddled The Tax Man”
PERFORMER “The Toy Dolls”
INDEX 01 00:00:00
FILE “The Toy Dolls\Wakey Wakey! [1989]\04 Pot Belly Bill.wav” WAVE
TRACK 04 AUDIO
TITLE “Pot Belly Bill”
PERFORMER “The Toy Dolls”
INDEX 01 00:00:00
FILE “The Toy Dolls\Wakey Wakey! [1989]\05 One Night In Moscow (& We’ll Be Russian Home!).wav” WAVE
TRACK 05 AUDIO
TITLE “One Night In Moscow (& We’ll Be Russian Home!)”
PERFORMER “The Toy Dolls”
INDEX 01 00:00:00
FILE “The Toy Dolls\Wakey Wakey! [1989]\06 Cloughy Is A Bootboy!.wav” WAVE
TRACK 06 AUDIO
TITLE “Cloughy Is A Bootboy!”
PERFORMER “The Toy Dolls”
INDEX 01 00:00:00
FILE “The Toy Dolls\Wakey Wakey! [1989]\07 Sabre Dance.wav” WAVE
TRACK 07 AUDIO
TITLE “Sabre Dance”
PERFORMER “The Toy Dolls”
INDEX 01 00:00:00
FILE “The Toy Dolls\Wakey Wakey! [1989]\08 Daveys Took The Plunge.wav” WAVE
TRACK 08 AUDIO
TITLE “Daveys Took The Plunge”
PERFORMER “The Toy Dolls”
INDEX 01 00:00:00
FILE “The Toy Dolls\Wakey Wakey! [1989]\09 There`s A Trollop Up Elmwood Street.wav” WAVE
TRACK 09 AUDIO
TITLE “There`s A Trollop Up Elmwood Street”
PERFORMER “The Toy Dolls”
INDEX 01 00:00:00
FILE “The Toy Dolls\Wakey Wakey! [1989]\10 No Particular Place To Go.wav” WAVE
TRACK 10 AUDIO
TITLE “No Particular Place To Go”
PERFORMER “The Toy Dolls”
INDEX 01 00:00:00
FILE “The Toy Dolls\Wakey Wakey! [1989]\11 Poverty Pleadin’ Peter.wav” WAVE
TRACK 11 AUDIO
TITLE “Poverty Pleadin’ Peter”
PERFORMER “The Toy Dolls”
INDEX 01 00:00:00
FILE “The Toy Dolls\Wakey Wakey! [1989]\12 Blaze Of The Borough.wav” WAVE
TRACK 12 AUDIO
TITLE “Blaze Of The Borough”
PERFORMER “The Toy Dolls”
INDEX 01 00:00:00
FILE “The Toy Dolls\Wakey Wakey! [1989]\13 Wakey Wakey Outro.wav” WAVE
TRACK 13 AUDIO
TITLE “Wakey Wakey Outro”
PERFORMER “The Toy Dolls”
INDEX 01 00:00:00
FILE “The Toy Dolls\Wakey Wakey! [1989]\14 Godnight Irene.wav” WAVE
TRACK 14 AUDIO
TITLE “Godnight Irene”
PERFORMER “The Toy Dolls”
INDEX 01 00:00:00


Spread the Download

Leave a Reply

Your email address will not be published. Required fields are marked *

Enter the text from the image below
 

This site uses Akismet to reduce spam. Learn how your comment data is processed.