The Suicide Machines – War Profiteering Is Killing Us All




[Total: 0    Average: 0/5]

Artist: The Suicide Machines
Year: 2005
Genre: Hardcore
Notes: Discogs
Add. Notes:
Cover incl.: Yes
Encoder: FLAC
Bitrate: ~1100 kBit/s (44.1 kHz/16 Bit/s)
Log & Cue incl.: Yes
Size: 220,65 MB
Password: “slam” (without ” “)


All Downloads/Hosters are compatible

Download 1
Share-online.biz
Rapidgator.net
KatFile.com
UploadRar.com
Download 2
Share-online.biz
Rapidgator.net
KatFile.com
UploadRar.com

Tracklist:

1 - War Profiteering Is Killing Us All - 1:27
2 - Capitalist Suicide - 1:40
3 - Ghost On Sunset Strip - 2:14
4 - Junk - 1:39
5 - 17% 18 - 25 - 1:20
6 - Capsule (AKA Requiem For The Stupid Human Race) - 
1:36
7 - All Systems Fail - 1:40
8 - Red Flag - 2:18
9 - Nuclear Generators - 1:57
10 - Bottomed Out - 2:38
11 - Rebellions Is On The Clearance Rack (And I Think I 
Like It) - 1:48
12 - Hands Tied - 1:56
13 - I Went On Tour For Ten Years... And All I Got Was 
This Lousy T-Shirt - 5:59
14 - 95% Of The World Is Third World - 2:33

EAC-Log, CUE-Sheed & NFO:

Click to open spoiler
Exact Audio Copy V0.99 prebeta 4 from 23. January 2008

EAC extraction logfile from 24. December 2008, 20:54

The Suicide Machines / War Profiteering Is Killing Us All

Used drive : TSSTcorpDVD+-RW TS-L632H Adapter: 0 ID: 0

Read mode : Secure
Utilize accurate stream : Yes
Defeat audio cache : Yes
Make use of C2 pointers : No

Read offset correction : 6
Overread into Lead-In and Lead-Out : No
Fill up missing offset samples with silence : Yes
Delete leading and trailing silent blocks : No
Null samples used in CRC calculations : Yes
Used interface : Native Win32 interface for Win NT & 2000
Gap handling : Appended to previous track

Used output format : User Defined Encoder
Selected bitrate : 128 kBit/s
Quality : High
Add ID3 tag : No
Command line compressor : C:\Program Files\FLAC\flac.exe
Additional command line options : -V -8 -T “artist=%a” -T “title=%t” -T “album=%g” -T “date=%y” -T “tracknumber=%n” -T “genre=%m” %s

TOC of the extracted CD

Track | Start | Length | Start sector | End sector
———————————————————
1 | 0:00.00 | 1:27.09 | 0 | 6533
2 | 1:27.09 | 1:40.26 | 6534 | 14059
3 | 3:07.35 | 2:14.21 | 14060 | 24130
4 | 5:21.56 | 1:39.34 | 24131 | 31589
5 | 7:01.15 | 1:20.64 | 31590 | 37653
6 | 8:22.04 | 1:36.13 | 37654 | 44866
7 | 9:58.17 | 1:40.57 | 44867 | 52423
8 | 11:38.74 | 2:18.30 | 52424 | 62803
9 | 13:57.29 | 1:57.21 | 62804 | 71599
10 | 15:54.50 | 2:38.56 | 71600 | 83505
11 | 18:33.31 | 1:48.37 | 83506 | 91642
12 | 20:21.68 | 1:56.42 | 91643 | 100384
13 | 22:18.35 | 5:59.01 | 100385 | 127310
14 | 28:17.36 | 2:33.68 | 127311 | 138853

Track 1

Filename C:\Documents and Settings\Administrator\Desktop\The Suicide Machines – War Profiteering Is Killing Us All (2005)\01 – War Profiteering Is Killing Us All.wav

Pre-gap length 0:00:02.00

Peak level 99.9 %
Track quality 100.0 %
Test CRC 02204615
Copy CRC 02204615
Accurately ripped (confidence 7) [ADEFF96D]
Copy OK

Track 2

Filename C:\Documents and Settings\Administrator\Desktop\The Suicide Machines – War Profiteering Is Killing Us All (2005)\02 – Capitalist Suicide.wav

Peak level 100.0 %
Track quality 100.0 %
Test CRC E559D18F
Copy CRC E559D18F
Accurately ripped (confidence 7) [B2404393]
Copy OK

Track 3

Filename C:\Documents and Settings\Administrator\Desktop\The Suicide Machines – War Profiteering Is Killing Us All (2005)\03 – Ghost On Sunset Strip.wav

Pre-gap length 0:01:40.34

Peak level 98.8 %
Track quality 100.0 %
Test CRC A5B58C72
Copy CRC A5B58C72
Accurately ripped (confidence 6) [0911B56F]
Copy OK

Track 4

Filename C:\Documents and Settings\Administrator\Desktop\The Suicide Machines – War Profiteering Is Killing Us All (2005)\04 – Junk.wav

Pre-gap length 0:03:54.62

Peak level 99.9 %
Track quality 100.0 %
Test CRC 09F1EA94
Copy CRC 09F1EA94
Accurately ripped (confidence 6) [6094C346]
Copy OK

Track 5

Filename C:\Documents and Settings\Administrator\Desktop\The Suicide Machines – War Profiteering Is Killing Us All (2005)\05 – 17% 18 – 25.wav

Pre-gap length 0:05:34.08

Peak level 100.0 %
Track quality 100.0 %
Test CRC AB79C6F7
Copy CRC AB79C6F7
Accurately ripped (confidence 6) [E8E1F16C]
Copy OK

Track 6

Filename C:\Documents and Settings\Administrator\Desktop\The Suicide Machines – War Profiteering Is Killing Us All (2005)\06 – Capsule (AKA Requiem For The Stupid Human Race).wav

Pre-gap length 0:06:54.93

Peak level 94.4 %
Track quality 100.0 %
Test CRC FA061724
Copy CRC FA061724
Accurately ripped (confidence 6) [EA5C35F1]
Copy OK

Track 7

Filename C:\Documents and Settings\Administrator\Desktop\The Suicide Machines – War Profiteering Is Killing Us All (2005)\07 – All Systems Fail.wav

Pre-gap length 0:08:31.10

Peak level 98.8 %
Track quality 100.0 %
Test CRC A3B3567C
Copy CRC A3B3567C
Accurately ripped (confidence 6) [3478B424]
Copy OK

Track 8

Filename C:\Documents and Settings\Administrator\Desktop\The Suicide Machines – War Profiteering Is Killing Us All (2005)\08 – Red Flag.wav

Pre-gap length 0:10:11.86

Peak level 100.0 %
Track quality 100.0 %
Test CRC BF45F549
Copy CRC BF45F549
Accurately ripped (confidence 6) [FD74D6B0]
Copy OK

Track 9

Filename C:\Documents and Settings\Administrator\Desktop\The Suicide Machines – War Profiteering Is Killing Us All (2005)\09 – Nuclear Generators.wav

Pre-gap length 0:12:30.26

Peak level 99.9 %
Track quality 100.0 %
Test CRC 465224FB
Copy CRC 465224FB
Accurately ripped (confidence 6) [BA0A8A21]
Copy OK

Track 10

Filename C:\Documents and Settings\Administrator\Desktop\The Suicide Machines – War Profiteering Is Killing Us All (2005)\10 – Bottomed Out.wav

Pre-gap length 0:14:27.54

Peak level 99.9 %
Track quality 99.9 %
Test CRC 8FBE9092
Copy CRC 8FBE9092
Accurately ripped (confidence 6) [01744758]
Copy OK

Track 11

Filename C:\Documents and Settings\Administrator\Desktop\The Suicide Machines – War Profiteering Is Killing Us All (2005)\11 – Rebellion Is On The Clearance Rack (And I Think I Like It).wav

Pre-gap length 0:17:06.29

Peak level 99.9 %
Track quality 100.0 %
Test CRC B6ADBF0C
Copy CRC B6ADBF0C
Accurately ripped (confidence 6) [85C7B8C3]
Copy OK

Track 12

Filename C:\Documents and Settings\Administrator\Desktop\The Suicide Machines – War Profiteering Is Killing Us All (2005)\12 – Hands Tied.wav

Pre-gap length 0:18:54.78

Peak level 99.9 %
Track quality 99.9 %
Test CRC 88F9479F
Copy CRC 88F9479F
Accurately ripped (confidence 6) [2D0D40C6]
Copy OK

Track 13

Filename C:\Documents and Settings\Administrator\Desktop\The Suicide Machines – War Profiteering Is Killing Us All (2005)\13 – I Went On Tour For Ten Years… And All I Got Was This Lousy T-Shirt.wav

Pre-gap length 0:20:51.34

Peak level 99.9 %
Track quality 100.0 %
Test CRC ECF9DF76
Copy CRC ECF9DF76
Accurately ripped (confidence 6) [47180B14]
Copy OK

Track 14

Filename C:\Documents and Settings\Administrator\Desktop\The Suicide Machines – War Profiteering Is Killing Us All (2005)\14 – 95% Of The World Is Third World.wav

Pre-gap length 0:26:50.36

Peak level 98.8 %
Track quality 100.0 %
Test CRC E3D49559
Copy CRC E3D49559
Accurately ripped (confidence 6) [11E19339]
Copy OK

All tracks accurately ripped

No errors occurred

End of status report

REM GENRE Punk
REM DATE 2005
REM DISCID A5073B0E
REM COMMENT “ExactAudioCopy v0.99pb4”
PERFORMER “The Suicide Machines”
TITLE “War Profiteering Is Killing Us All”
FILE “01 – War Profiteering Is Killing Us All.wav” WAVE
TRACK 01 AUDIO
TITLE “War Profiteering Is Killing Us All”
PERFORMER “The Suicide Machines”
INDEX 01 00:00:00
FILE “02 – Capitalist Suicide.wav” WAVE
TRACK 02 AUDIO
TITLE “Capitalist Suicide”
PERFORMER “The Suicide Machines”
INDEX 01 00:00:00
TRACK 03 AUDIO
TITLE “Ghost On Sunset Strip”
PERFORMER “The Suicide Machines”
INDEX 00 00:00:00
FILE “03 – Ghost On Sunset Strip.wav” WAVE
INDEX 01 00:00:00
TRACK 04 AUDIO
TITLE “Junk”
PERFORMER “The Suicide Machines”
INDEX 00 09:20:49
FILE “04 – Junk.wav” WAVE
INDEX 01 00:00:00
TRACK 05 AUDIO
TITLE “17% 18 – 25”
PERFORMER “The Suicide Machines”
INDEX 00 07:06:28
FILE “05 – 17% 18 – 25.wav” WAVE
INDEX 01 00:00:00
TRACK 06 AUDIO
TITLE “Capsule (AKA Requiem For The Stupid Human Race)”
PERFORMER “The Suicide Machines”
INDEX 00 05:26:69
FILE “06 – Capsule (AKA Requiem For The Stupid Human Race).wav” WAVE
INDEX 01 00:00:00
TRACK 07 AUDIO
TITLE “All Systems Fail”
PERFORMER “The Suicide Machines”
INDEX 00 04:06:05
FILE “07 – All Systems Fail.wav” WAVE
INDEX 01 00:00:00
TRACK 08 AUDIO
TITLE “Red Flag”
PERFORMER “The Suicide Machines”
INDEX 00 02:29:67
FILE “08 – Red Flag.wav” WAVE
INDEX 01 00:00:00
TRACK 09 AUDIO
TITLE “Nuclear Generators”
PERFORMER “The Suicide Machines”
INDEX 00 90:49:10
FILE “09 – Nuclear Generators.wav” WAVE
INDEX 01 00:00:00
TRACK 10 AUDIO
TITLE “Bottomed Out”
PERFORMER “The Suicide Machines”
INDEX 00 98:30:55
FILE “10 – Bottomed Out.wav” WAVE
INDEX 01 00:00:00
TRACK 11 AUDIO
TITLE “Rebellion Is On The Clearance Rack (And I Think I Like It)”
PERFORMER “The Suicide Machines”
INDEX 00 96:33:34
FILE “11 – Rebellion Is On The Clearance Rack (And I Think I Like It).wav” WAVE
INDEX 01 00:00:00
TRACK 12 AUDIO
TITLE “Hands Tied”
PERFORMER “The Suicide Machines”
INDEX 00 93:54:53
FILE “12 – Hands Tied.wav” WAVE
INDEX 01 00:00:00
TRACK 13 AUDIO
TITLE “I Went On Tour For Ten Years… And All I Got Was This Lousy T-Shirt”
PERFORMER “The Suicide Machines”
INDEX 00 92:06:16
FILE “13 – I Went On Tour For Ten Years… And All I Got Was This Lousy T-Shirt.wav” WAVE
INDEX 01 00:00:00
TRACK 14 AUDIO
TITLE “95% Of The World Is Third World”
PERFORMER “The Suicide Machines”
INDEX 00 80:09:49
FILE “14 – 95% Of The World Is Third World.wav” WAVE
INDEX 01 00:00:00


Spread the Download

Leave a Reply

Your email address will not be published. Required fields are marked *

Enter the text from the image below
 

This site uses Akismet to reduce spam. Learn how your comment data is processed.