The Specials – The Specials




[Total: 0    Average: 0/5]

Artist: The Specials
Year: 1979/1984
Genre: Ska
Notes: Discogs
Add. Notes:
Cover incl.: No
Encoder: FLAC
Bitrate: ~800 kBit/s (44.1 kHz/16 Bit/s)
Log & Cue incl.: Yes
Size: 275,19 MB
Password: “slam” (without ” “)


All Downloads/Hosters are compatible

Download 1
Share-online.biz
Rapidgator.net
KatFile.com
UploadRar.com
Download 2
Share-online.biz
Rapidgator.net
KatFile.com
UploadRar.com

Tracklist:

1. A Message To You Rudy
2. Do The Dog
3. It's Up To You
4. Nite Klub
5. Doesn't Make It Alright
6. Concrete Jungle
7. Too Hot
8. Monkey Man
9. (Dawning Of A) New Era
10. Blank Expression 
11. Stupid Marriage
12. Too Much Too Young
13. Gangsters
14. Little Bitch
15. You're Wondering Now

EAC-Log, CUE-Sheed & NFO:

Click to open spoiler
Exact Audio Copy V0.99 prebeta 3 from 28. July 2007

EAC extraction logfile from 14. December 2007, 6:37

The Specials / Specials

Used drive : PBDS DVD+-RW DS-8W1P Adapter: 0 ID: 0

Read mode : Secure
Utilize accurate stream : Yes
Defeat audio cache : Yes
Make use of C2 pointers : Yes

Read offset correction : 594
Overread into Lead-In and Lead-Out : No
Fill up missing offset samples with silence : Yes
Delete leading and trailing silent blocks : No
Null samples used in CRC calculations : Yes
Used interface : Native Win32 interface for Win NT & 2000
Gap handling : Appended to previous track

Used output format : User Defined Encoder
Selected bitrate : 128 kBit/s
Quality : High
Add ID3 tag : No
Command line compressor : D:\Program Files\Exact Audio Copy\Flac\flac.exe
Additional command line options : -V -8 -T \”artist=%a\” -T \”title=%t\” -T \”album=%g\” -T \”date=%y\” -T \”tracknumber=%n\” -T \”genre=%m\” %s

TOC of the extracted CD

Track | Start | Length | Start sector | End sector
———————————————————
1 | 0:00.00 | 2:54.07 | 0 | 13056
2 | 2:54.07 | 2:12.15 | 13057 | 22971
3 | 5:06.22 | 3:25.68 | 22972 | 38414
4 | 8:32.15 | 3:24.20 | 38415 | 53734
5 | 11:56.35 | 3:26.25 | 53735 | 69209
6 | 15:22.60 | 3:22.57 | 69210 | 84416
7 | 18:45.42 | 3:12.43 | 84417 | 98859
8 | 21:58.10 | 2:45.40 | 98860 | 111274
9 | 24:43.50 | 2:26.72 | 111275 | 122296
10 | 27:10.47 | 2:44.53 | 122297 | 134649
11 | 29:55.25 | 3:51.32 | 134650 | 152006
12 | 33:46.57 | 6:07.30 | 152007 | 179561
13 | 39:54.12 | 2:33.40 | 179562 | 191076
14 | 42:27.52 | 2:39.23 | 191077 | 203024

Track 1

Filename D:\My Documents\My Torrents – Uploads\The Specials\Specials\01 – A Message To You Rudy.wav

Pre-gap length 0:00:02.00

Peak level 86.4 %
Track quality 100.0 %
Test CRC F744A038
Copy CRC F744A038
Cannot be verified as accurate (confidence 2) [35AA68B6], AccurateRip returned [0029B999]
Copy OK

Track 2

Filename D:\My Documents\My Torrents – Uploads\The Specials\Specials\02 – Do The Dog.wav

Peak level 93.7 %
Track quality 100.0 %
Test CRC 22805743
Copy CRC 22805743
Cannot be verified as accurate (confidence 2) [57C3685F], AccurateRip returned [6FC68A0B]
Copy OK

Track 3

Filename D:\My Documents\My Torrents – Uploads\The Specials\Specials\03 – It’s Up To You.wav

Peak level 100.0 %
Track quality 99.8 %
Test CRC BCBE33A2
Copy CRC BCBE33A2
Cannot be verified as accurate (confidence 2) [692566AB], AccurateRip returned [F61AB5E5]
Copy OK

Track 4

Filename D:\My Documents\My Torrents – Uploads\The Specials\Specials\04 – Nite Klub.wav

Peak level 98.5 %
Track quality 100.0 %
Test CRC 228A1EFE
Copy CRC 228A1EFE
Cannot be verified as accurate (confidence 2) [0D24B75D], AccurateRip returned [36798671]
Copy OK

Track 5

Filename D:\My Documents\My Torrents – Uploads\The Specials\Specials\05 – Doesn’t Make It Alright.wav

Peak level 89.2 %
Track quality 100.0 %
Test CRC 610CFE4B
Copy CRC 610CFE4B
Cannot be verified as accurate (confidence 2) [E4F68FCD], AccurateRip returned [04CA67C8]
Copy OK

Track 6

Filename D:\My Documents\My Torrents – Uploads\The Specials\Specials\06 – Concrete Jungle.wav

Peak level 100.0 %
Track quality 100.0 %
Test CRC C4D09CB0
Copy CRC C4D09CB0
Cannot be verified as accurate (confidence 2) [29CC7C32], AccurateRip returned [BBE8DEFC]
Copy OK

Track 7

Filename D:\My Documents\My Torrents – Uploads\The Specials\Specials\07 – Too Hot.wav

Peak level 88.9 %
Track quality 100.0 %
Test CRC DE303579
Copy CRC DE303579
Cannot be verified as accurate (confidence 2) [9CD1B1B8], AccurateRip returned [8C72CB5D]
Copy OK

Track 8

Filename D:\My Documents\My Torrents – Uploads\The Specials\Specials\08 – Monkey Man.wav

Peak level 80.6 %
Track quality 100.0 %
Test CRC 5FC57D4B
Copy CRC 5FC57D4B
Cannot be verified as accurate (confidence 2) [B3BF3553], AccurateRip returned [0664D769]
Copy OK

Track 9

Filename D:\My Documents\My Torrents – Uploads\The Specials\Specials\09 – New Era.wav

Peak level 88.6 %
Track quality 99.8 %
Test CRC 9197DCD1
Copy CRC 9197DCD1
Cannot be verified as accurate (confidence 2) [C1FEE438], AccurateRip returned [20374B2F]
Copy OK

Track 10

Filename D:\My Documents\My Torrents – Uploads\The Specials\Specials\10 – Blank Expression.wav

Peak level 82.7 %
Track quality 100.0 %
Test CRC 9ADB2495
Copy CRC 9ADB2495
Cannot be verified as accurate (confidence 2) [879165B4], AccurateRip returned [B77985B7]
Copy OK

Track 11

Filename D:\My Documents\My Torrents – Uploads\The Specials\Specials\11 – Stupid Marriage.wav

Peak level 97.3 %
Track quality 100.0 %
Test CRC 42BCC332
Copy CRC 42BCC332
Cannot be verified as accurate (confidence 2) [05A39447], AccurateRip returned [C99892B0]
Copy OK

Track 12

Filename D:\My Documents\My Torrents – Uploads\The Specials\Specials\12 – Too Much Too Young.wav

Peak level 82.4 %
Track quality 100.0 %
Test CRC 6DA2084C
Copy CRC 6DA2084C
Cannot be verified as accurate (confidence 2) [9D294457], AccurateRip returned [283AADC5]
Copy OK

Track 13

Filename D:\My Documents\My Torrents – Uploads\The Specials\Specials\13 – Little Bitch.wav

Peak level 93.9 %
Track quality 100.0 %
Test CRC 68328BAA
Copy CRC 68328BAA
Cannot be verified as accurate (confidence 2) [25722870], AccurateRip returned [70DD607D]
Copy OK

Track 14

Filename D:\My Documents\My Torrents – Uploads\The Specials\Specials\14 – You’re Wondering Now.wav

Peak level 95.4 %
Track quality 100.0 %
Test CRC C34BC8A6
Copy CRC C34BC8A6
Cannot be verified as accurate (confidence 2) [FBB4E49C], AccurateRip returned [430502C5]
Copy OK

No tracks could be verified as accurate
You may have a different pressing from the one(s) in the database

No errors occurred

End of status report

REM GENRE Ska
REM DATE 1979
REM DISCID BF0A930E
REM COMMENT “ExactAudioCopy v0.99pb3”
PERFORMER “The Specials”
TITLE “Specials”
FILE “The Specials\Specials\01 – A Message To You Rudy.wav” WAVE
TRACK 01 AUDIO
TITLE “A Message To You Rudy”
PERFORMER “The Specials”
INDEX 01 00:00:00
FILE “The Specials\Specials\02 – Do The Dog.wav” WAVE
TRACK 02 AUDIO
TITLE “Do The Dog”
PERFORMER “The Specials”
INDEX 01 00:00:00
FILE “The Specials\Specials\03 – It’s Up To You.wav” WAVE
TRACK 03 AUDIO
TITLE “It’s Up To You”
PERFORMER “The Specials”
INDEX 01 00:00:00
FILE “The Specials\Specials\04 – Nite Klub.wav” WAVE
TRACK 04 AUDIO
TITLE “Nite Klub”
PERFORMER “The Specials”
INDEX 01 00:00:00
FILE “The Specials\Specials\05 – Doesn’t Make It Alright.wav” WAVE
TRACK 05 AUDIO
TITLE “Doesn’t Make It Alright”
PERFORMER “The Specials”
INDEX 01 00:00:00
FILE “The Specials\Specials\06 – Concrete Jungle.wav” WAVE
TRACK 06 AUDIO
TITLE “Concrete Jungle”
PERFORMER “The Specials”
INDEX 01 00:00:00
FILE “The Specials\Specials\07 – Too Hot.wav” WAVE
TRACK 07 AUDIO
TITLE “Too Hot”
PERFORMER “The Specials”
INDEX 01 00:00:00
FILE “The Specials\Specials\08 – Monkey Man.wav” WAVE
TRACK 08 AUDIO
TITLE “Monkey Man”
PERFORMER “The Specials”
INDEX 01 00:00:00
FILE “The Specials\Specials\09 – New Era.wav” WAVE
TRACK 09 AUDIO
TITLE “New Era”
PERFORMER “The Specials”
INDEX 01 00:00:00
FILE “The Specials\Specials\10 – Blank Expression.wav” WAVE
TRACK 10 AUDIO
TITLE “Blank Expression”
PERFORMER “The Specials”
INDEX 01 00:00:00
FILE “The Specials\Specials\11 – Stupid Marriage.wav” WAVE
TRACK 11 AUDIO
TITLE “Stupid Marriage”
PERFORMER “The Specials”
INDEX 01 00:00:00
FILE “The Specials\Specials\12 – Too Much Too Young.wav” WAVE
TRACK 12 AUDIO
TITLE “Too Much Too Young”
PERFORMER “The Specials”
INDEX 01 00:00:00
FILE “The Specials\Specials\13 – Little Bitch.wav” WAVE
TRACK 13 AUDIO
TITLE “Little Bitch”
PERFORMER “The Specials”
INDEX 01 00:00:00
FILE “The Specials\Specials\14 – You’re Wondering Now.wav” WAVE
TRACK 14 AUDIO
TITLE “You’re Wondering Now”
PERFORMER “The Specials”
INDEX 01 00:00:00
s


Spread the Download

Leave a Reply

Your email address will not be published. Required fields are marked *

Enter the text from the image below
 

This site uses Akismet to reduce spam. Learn how your comment data is processed.