The Rolling Stones – Metamorphosis (Remastered)




[Total: 0    Average: 0/5]

Artist: The Rolling Stones
Year: 1975/2002
Genre: Rock
Notes: Discogs
Add. Notes: Remastered
Cover incl.: Yes
Encoder: FLAC
Bitrate: ~900 kBit/s (44.1 kHz/16 Bit/s)
Log & Cue incl.: Yes
Size: 493,99 MB
Password: “slam” (without ” “)


All Downloads/Hosters are compatible

Download 1
Share-online.biz
Rapidgator.net
KatFile.com
UploadRar.com
Download 2
Share-online.biz
Rapidgator.net
KatFile.com
UploadRar.com

Tracklist:

1 - Out Of Time - 3:22
2 - Don't Lie To Me - 2:02
3 - Somethings Just Stick In Your Mind - 2:27
4 - Each And Every Day Of The Year - 2:49
5 - Heart Of Stone - 3:48
6 - I'd Much Rather Be With The Boys - 2:12
7 - (Walkin' Thru The) Sleepy City - 2:52
8 - We're Wastin' Time - 2:44
9 - Try A Little Harder - 2:19
10 - I Don't Know Why - 3:02
11 - If You Let Me - 3:18
12 - Jiving Sister Fanny - 3:25
13 - Downtown Suzie - 3:53
14 - Family - 4:06
15 - Memo From Turner - 2:46
16 - I'm Going Down - 2:52

EAC-Log, CUE-Sheed & NFO:

Click to open spoiler
Exact Audio Copy V1.3 from 2. September 2016

EAC extraction logfile from 4. February 2019, 11:59

The Rolling Stones / Metamorphosis

Used drive : TSSTcorpCDDVDW SH-224DB Adapter: 1 ID: 0

Read mode : Secure
Utilize accurate stream : Yes
Defeat audio cache : Yes
Make use of C2 pointers : No

Read offset correction : 6
Overread into Lead-In and Lead-Out : No
Fill up missing offset samples with silence : Yes
Delete leading and trailing silent blocks : No
Null samples used in CRC calculations : Yes
Used interface : Native Win32 interface for Win NT & 2000

Used output format : User Defined Encoder
Selected bitrate : 1024 kBit/s
Quality : High
Add ID3 tag : No
Command line compressor : C:\Program Files (x86)\Exact Audio Copy\win64\flac.exe
Additional command line options : -8 -V -T “ARTIST=%artist%” -T “TITLE=%title%” -T “ALBUM=%albumtitle%” -T “DATE=%year%” -T “TRACKNUMBER=%tracknr%” -T “GENRE=%genre%” -T “COMMENT=%comment%” %source% -o %dest%

TOC of the extracted CD

Track | Start | Length | Start sector | End sector
———————————————————
1 | 0:00.00 | 3:23.03 | 0 | 15227
2 | 3:23.03 | 2:00.08 | 15228 | 24235
3 | 5:23.11 | 2:25.25 | 24236 | 35135
4 | 7:48.36 | 2:47.31 | 35136 | 47691
5 | 10:35.67 | 3:46.63 | 47692 | 64704
6 | 14:22.55 | 2:11.21 | 64705 | 74550
7 | 16:34.01 | 2:50.29 | 74551 | 87329
8 | 19:24.30 | 2:41.55 | 87330 | 99459
9 | 22:06.10 | 2:16.74 | 99460 | 109733
10 | 24:23.09 | 3:00.28 | 109734 | 123261
11 | 27:23.37 | 3:16.24 | 123262 | 137985
12 | 30:39.61 | 3:23.27 | 137986 | 153237
13 | 34:03.13 | 3:51.62 | 153238 | 170624
14 | 37:55.00 | 4:04.33 | 170625 | 188957
15 | 41:59.33 | 2:44.56 | 188958 | 201313
16 | 44:44.14 | 2:54.17 | 201314 | 214380
17 | 47:38.31 | 2:44.01 | 214381 | 226681
18 | 50:22.32 | 2:15.69 | 226682 | 236875
19 | 52:38.26 | 3:03.31 | 236876 | 250631
20 | 55:41.57 | 2:13.11 | 250632 | 260617
21 | 57:54.68 | 2:32.16 | 260618 | 272033
22 | 60:27.09 | 2:42.62 | 272034 | 284245
23 | 63:09.71 | 2:14.52 | 284246 | 294347
24 | 65:24.48 | 3:02.51 | 294348 | 308048
25 | 68:27.24 | 2:52.62 | 308049 | 321010
26 | 71:20.11 | 2:40.33 | 321011 | 333043

Range status and errors

Selected range

Filename F:\Sket4er\The Rolling Stones – Metamorphosis (1975) 2002\The Rolling Stones – Metamorphosis.wav

Peak level 99.8 %
Extraction speed 3.3 X
Range quality 100.0 %
Test CRC C96171EF
Copy CRC C96171EF
Copy OK

No errors occurred

AccurateRip summary

Track 1 accurately ripped (confidence 1) [451AC754] (AR v2)
Track 2 accurately ripped (confidence 1) [5BB1758B] (AR v2)
Track 3 accurately ripped (confidence 1) [9B007038] (AR v2)
Track 4 accurately ripped (confidence 1) [498CFC2C] (AR v2)
Track 5 accurately ripped (confidence 1) [527A3B14] (AR v2)
Track 6 accurately ripped (confidence 1) [D539B12F] (AR v2)
Track 7 accurately ripped (confidence 1) [410DA70A] (AR v2)
Track 8 accurately ripped (confidence 1) [0AD05C4F] (AR v2)
Track 9 accurately ripped (confidence 1) [B73B3329] (AR v2)
Track 10 accurately ripped (confidence 1) [D57F8D2E] (AR v2)
Track 11 accurately ripped (confidence 1) [122A24A4] (AR v2)
Track 12 accurately ripped (confidence 1) [0F210D86] (AR v2)
Track 13 accurately ripped (confidence 1) [7608D0FA] (AR v2)
Track 14 accurately ripped (confidence 1) [1C41975A] (AR v2)
Track 15 accurately ripped (confidence 1) [BBC4295F] (AR v2)
Track 16 accurately ripped (confidence 1) [6670B1D1] (AR v2)
Track 17 accurately ripped (confidence 2) [42DF6CE1] (AR v2)
Track 18 accurately ripped (confidence 2) [41ADC036] (AR v2)
Track 19 accurately ripped (confidence 2) [380E703C] (AR v2)
Track 20 accurately ripped (confidence 2) [F7A32F0A] (AR v2)
Track 21 accurately ripped (confidence 2) [22BD012A] (AR v2)
Track 22 accurately ripped (confidence 2) [C896C2FF] (AR v2)
Track 23 accurately ripped (confidence 2) [A723FA15] (AR v2)
Track 24 accurately ripped (confidence 2) [1ABE5EC0] (AR v2)
Track 25 accurately ripped (confidence 2) [6CA8A31B] (AR v2)
Track 26 accurately ripped (confidence 2) [A1FFE41F] (AR v2)

All tracks accurately ripped

End of status report

—- CUETools DB Plugin V2.1.6

[CTDB TOCID: WYP400jhjOBt6s9rSgBnaYANbD0-] found
Submit result: WYP400jhjOBt6s9rSgBnaYANbD0- has been confirmed
Track | CTDB Status
1 | (3/3) Accurately ripped
2 | (3/3) Accurately ripped
3 | (3/3) Accurately ripped
4 | (3/3) Accurately ripped
5 | (3/3) Accurately ripped
6 | (3/3) Accurately ripped
7 | (3/3) Accurately ripped
8 | (3/3) Accurately ripped
9 | (3/3) Accurately ripped
10 | (3/3) Accurately ripped
11 | (3/3) Accurately ripped
12 | (3/3) Accurately ripped
13 | (3/3) Accurately ripped
14 | (3/3) Accurately ripped
15 | (3/3) Accurately ripped
16 | (3/3) Accurately ripped
17 | (3/3) Accurately ripped
18 | (3/3) Accurately ripped
19 | (3/3) Accurately ripped
20 | (3/3) Accurately ripped
21 | (3/3) Accurately ripped
22 | (3/3) Accurately ripped
23 | (3/3) Accurately ripped
24 | (3/3) Accurately ripped
25 | (3/3) Accurately ripped
26 | (3/3) Accurately ripped

==== Log checksum 8DE3502294D4CA961F9AF48F2E29D6E90099A1007FB8A1429E832BFD7B7315DC ====

REM GENRE Rock
REM DATE 1975
REM DISCID 7E11581A
REM COMMENT “ExactAudioCopy v1.3”
PERFORMER “The Rolling Stones”
TITLE “Metamorphosis”
REM COMPOSER “”
FILE “The Rolling Stones – Metamorphosis.flac” WAVE
TRACK 01 AUDIO
TITLE “Out Of Time”
PERFORMER “The Rolling Stones”
REM COMPOSER “”
INDEX 01 00:00:00
TRACK 02 AUDIO
TITLE “Don’t Lie To Me”
PERFORMER “The Rolling Stones”
REM COMPOSER “”
INDEX 01 03:23:03
TRACK 03 AUDIO
TITLE “Some Things Just Stick In Your Mind”
PERFORMER “The Rolling Stones”
REM COMPOSER “”
INDEX 01 05:23:11
TRACK 04 AUDIO
TITLE “Each And Every Day Of The Year”
PERFORMER “The Rolling Stones”
REM COMPOSER “”
INDEX 01 07:48:36
TRACK 05 AUDIO
TITLE “Heart Of Stone”
PERFORMER “The Rolling Stones”
REM COMPOSER “”
INDEX 01 10:35:67
TRACK 06 AUDIO
TITLE “I’d Much Rather Be With The Boys”
PERFORMER “The Rolling Stones”
REM COMPOSER “”
INDEX 01 14:22:55
TRACK 07 AUDIO
TITLE “(Walkin’ Thru The) Sleepy City”
PERFORMER “The Rolling Stones”
REM COMPOSER “”
INDEX 01 16:34:01
TRACK 08 AUDIO
TITLE “We’re Wasting Time”
PERFORMER “The Rolling Stones”
REM COMPOSER “”
INDEX 01 19:24:30
TRACK 09 AUDIO
TITLE “Try A Little Harder”
PERFORMER “The Rolling Stones”
REM COMPOSER “”
INDEX 01 22:06:10
TRACK 10 AUDIO
TITLE “I Don’t Know Why”
PERFORMER “The Rolling Stones”
REM COMPOSER “”
INDEX 01 24:23:09
TRACK 11 AUDIO
TITLE “If You Let Me”
PERFORMER “The Rolling Stones”
REM COMPOSER “”
INDEX 01 27:23:37
TRACK 12 AUDIO
TITLE “Jiving Sister Fanny”
PERFORMER “The Rolling Stones”
REM COMPOSER “”
INDEX 01 30:39:61
TRACK 13 AUDIO
TITLE “Downtown Suzie”
PERFORMER “The Rolling Stones”
REM COMPOSER “”
INDEX 01 34:03:13
TRACK 14 AUDIO
TITLE “Family”
PERFORMER “The Rolling Stones”
REM COMPOSER “”
INDEX 01 37:55:00
TRACK 15 AUDIO
TITLE “Memo From Turner”
PERFORMER “The Rolling Stones”
REM COMPOSER “”
INDEX 01 41:59:33
TRACK 16 AUDIO
TITLE “I’m Going Down”
PERFORMER “The Rolling Stones”
REM COMPOSER “”
INDEX 01 44:44:14
TRACK 17 AUDIO
TITLE “Blue Turns To Grey (Version I)”
PERFORMER “The Rolling Stones”
REM COMPOSER “”
INDEX 00 47:36:31
INDEX 01 47:38:31
TRACK 18 AUDIO
TITLE “Da Doo Ron, Ron”
PERFORMER “The Rolling Stones”
REM COMPOSER “”
INDEX 01 50:22:32
TRACK 19 AUDIO
TITLE “Hear It (Instrumental)”
PERFORMER “The Rolling Stones”
REM COMPOSER “”
INDEX 01 52:38:26
TRACK 20 AUDIO
TITLE “I Know”
PERFORMER “The Rolling Stones”
REM COMPOSER “”
INDEX 01 55:41:57
TRACK 21 AUDIO
TITLE “Something Just Stick In Your Mind (Basic Mix, No Overdubs)”
PERFORMER “The Rolling Stones”
REM COMPOSER “”
INDEX 01 57:54:68
TRACK 22 AUDIO
TITLE “Each And Every Day Of The Year (Basic Mix, No Overdubs)”
PERFORMER “The Rolling Stones”
REM COMPOSER “”
INDEX 01 60:27:09
TRACK 23 AUDIO
TITLE “I’d Much Rather Be With The Boys (Basic Mix, No Overdubs)”
PERFORMER “The Rolling Stones”
REM COMPOSER “”
INDEX 01 63:09:71
TRACK 24 AUDIO
TITLE “(Walkin’ Thru’) The Sleepy City (Basic Mix, No Overdubs)”
PERFORMER “The Rolling Stones”
REM COMPOSER “”
INDEX 01 65:24:48
TRACK 25 AUDIO
TITLE “We’re Wasting Time (Basic Mix, No Overdubs)”
PERFORMER “The Rolling Stones”
REM COMPOSER “”
INDEX 01 68:27:24
TRACK 26 AUDIO
TITLE “Medley: You’ve Just Made My Day, I’m Just A Funny Guy, You Must Be The One, S…”
PERFORMER “The Rolling Stones”
REM COMPOSER “”
INDEX 01 71:20:11


Spread the Download

Leave a Reply

Your email address will not be published. Required fields are marked *

Enter the text from the image below
 

This site uses Akismet to reduce spam. Learn how your comment data is processed.