The Rolling Stones – Bridges To Babylon




[Total: 0    Average: 0/5]

Artist: The Rolling Stones
Year: 1997
Genre: Rock
Notes: Discogs
Add. Notes:
Cover incl.: Yes
Encoder: FLAC
Bitrate: ~1000 kBit/s (44.1 kHz/16 Bit/s)
Log & Cue incl.: Yes
Size: 564,89 MB
Password: “slam” (without ” “)


All Downloads/Hosters are compatible

Download 1
Share-online.biz
Rapidgator.net
KatFile.com
UploadRar.com
Download 2
Share-online.biz
Rapidgator.net
KatFile.com
UploadRar.com

Tracklist:

1 - Flip The Switch - 3:28
2 - Anybody Seen My Baby? - 4:31
3 - Low Down - 4:26
4 - Already Over Me - 5:24
5 - Gunface - 5:02
6 - You Don't Have To Mean It - 3:44
7 - Out Of Control - 4:43
8 - Saint Of Me - 5:15
9 - Might As Well Get Juiced - 5:23
10 - Always Suffering - 4:43
11 - Too Tight - 3:33
12 - Thief In The Night - 5:15
13 - How Can I Stop - 5:53

EAC-Log, CUE-Sheed & NFO:

Click to open spoiler
REM GENRE Rock
REM DATE 1997
REM DISCID A40EA30D
REM COMMENT “ExactAudioCopy v0.99pb5”
PERFORMER “The Rolling Stones”
TITLE “Bridges to Babylon”
FILE “The Rolling Stones – Bridges to Babylon.wav” WAVE
TRACK 01 AUDIO
TITLE “Flip The Switch”
PERFORMER “The Rolling Stones”
INDEX 01 00:00:00
TRACK 02 AUDIO
TITLE “Anybody Seen My Baby”
PERFORMER “The Rolling Stones”
INDEX 01 03:28:02
TRACK 03 AUDIO
TITLE “Lowdown”
PERFORMER “The Rolling Stones”
INDEX 01 07:59:15
TRACK 04 AUDIO
TITLE “Already Over Me”
PERFORMER “The Rolling Stones”
INDEX 01 12:25:17
TRACK 05 AUDIO
TITLE “Gunface”
PERFORMER “The Rolling Stones”
INDEX 01 17:49:17
TRACK 06 AUDIO
TITLE “You Don’t Have To Mean It”
PERFORMER “The Rolling Stones”
INDEX 01 22:51:32
TRACK 07 AUDIO
TITLE “Out Of Control”
PERFORMER “The Rolling Stones”
INDEX 00 26:33:62
INDEX 01 26:35:52
TRACK 08 AUDIO
TITLE “Saint Of Me”
PERFORMER “The Rolling Stones”
INDEX 01 31:19:10
TRACK 09 AUDIO
TITLE “Might As Well Get Juiced”
PERFORMER “The Rolling Stones”
INDEX 01 36:33:52
TRACK 10 AUDIO
TITLE “Always Suffering”
PERFORMER “The Rolling Stones”
INDEX 01 41:57:07
TRACK 11 AUDIO
TITLE “Too Tight”
PERFORMER “The Rolling Stones”
INDEX 00 46:40:47
INDEX 01 46:40:70
TRACK 12 AUDIO
TITLE “Thief In The Night”
PERFORMER “The Rolling Stones”
INDEX 00 50:14:30
INDEX 01 50:18:20
TRACK 13 AUDIO
TITLE “How Can I Stop”
PERFORMER “The Rolling Stones”
INDEX 01 55:33:72

Exact Audio Copy V0.99 prebeta 5 from 4. May 2009

Отчёт EAC об извлечении, выполненном 23. мая 2010, 21:50

The Rolling Stones / Bridges to Babylon

Дисковод: Optiarc DVD RW AD-7200S Adapter: 2 ID: 0

Режим чтения : Достоверность
Использование точного потока : Да
Отключение кэша аудио : Да
Использование указателей C2 : Нет

Коррекция смещения при чтении : 48
Способность читать области Lead-in и Lead-out : Нет
Заполнение пропущенных сэмплов тишиной : Да
Удаление блоков с тишиной в начале и конце : Нет
При вычислениях CRC использовались нулевые сэмплы : Да
Интерфейс : Установленный внешний ASPI-интерфейс

Выходной формат : Внутренние WAV-операции
Формат сэмплов : 44.100 Гц; 16 бит; стерео

TOC извлечённого CD

Трек | Старт | Длительность | Начальный сектор | Конечный сектор
———————————————————————
1 | 0:00.00 | 3:28.02 | 0 | 15601
2 | 3:28.02 | 4:31.13 | 15602 | 35939
3 | 7:59.15 | 4:26.02 | 35940 | 55891
4 | 12:25.17 | 5:24.00 | 55892 | 80191
5 | 17:49.17 | 5:02.15 | 80192 | 102856
6 | 22:51.32 | 3:44.20 | 102857 | 119676
7 | 26:35.52 | 4:43.33 | 119677 | 140934
8 | 31:19.10 | 5:14.42 | 140935 | 164526
9 | 36:33.52 | 5:23.30 | 164527 | 188781
10 | 41:57.07 | 4:43.63 | 188782 | 210069
11 | 46:40.70 | 3:37.25 | 210070 | 226369
12 | 50:18.20 | 5:15.52 | 226370 | 250046
13 | 55:33.72 | 6:53.45 | 250047 | 281066

Характеристики диапазона извлечения и сообщения об ошибках

Выбранный диапазон

Имя файла E:\МОИ РАЗДАЧИ\The Rolling Stones – Bridges To Babylon 1997\The Rolling Stones – Bridges to Babylon.wav

Пиковый уровень 100.0 %
Качество диапазона 100.0 %
CRC теста 0873712A
CRC копии 0873712A
Копирование… OK

Ошибок не произошло

AccurateRip: сводка

Трек 1 точное извлечение (доверие 127) [AB1FA1BA]
Трек 2 точное извлечение (доверие 130) [3F77469C]
Трек 3 точное извлечение (доверие 127) [AABB1183]
Трек 4 точное извлечение (доверие 128) [6E76D8DD]
Трек 5 точное извлечение (доверие 127) [262ACC19]
Трек 6 точное извлечение (доверие 124) [62791D18]
Трек 7 точное извлечение (доверие 125) [07F8E904]
Трек 8 точное извлечение (доверие 126) [CCBF82C6]
Трек 9 точное извлечение (доверие 123) [8B2F271A]
Трек 10 точное извлечение (доверие 124) [AE92EC70]
Трек 11 точное извлечение (доверие 123) [FFE07CB5]
Трек 12 точное извлечение (доверие 118) [AB400487]
Трек 13 точное извлечение (доверие 118) [F237CDF2]

Все треки извлечены точно

Конец отчёта


Spread the Download

Leave a Reply

Your email address will not be published. Required fields are marked *

Enter the text from the image below
 

This site uses Akismet to reduce spam. Learn how your comment data is processed.