The Police – Regatta De Blanc (Remastered)




[Total: 0    Average: 0/5]

Artist: The Police
Year: 1979/2003
Genre: Rock
Notes: Discogs
Add. Notes: Remastered
Cover incl.: Yes
Encoder: FLAC
Bitrate: ~1000 kBit/s (44.1 kHz/16 Bit/s)
Log & Cue incl.: Yes
Size: 317,37 MB
Password: “slam” (without ” “)


All Downloads/Hosters are compatible

Download 1
Share-online.biz
Rapidgator.net
KatFile.com
UploadRar.com
Download 2
Share-online.biz
Rapidgator.net
KatFile.com
UploadRar.com

Tracklist:

1 - Message In A Bottle - 4:51
2 - Reggatta De Blanc - 3:07
3 - It's Alright For You - 3:13
4 - Bring On The Night - 4:16
5 - Deathwish - 4:14
6 - Walking On The Moon - 5:02
7 - On Any Other Day - 2:58
8 - The Bed's Too Big Without You - 4:26
9 - Contact - 2:39
10 - Does Everyone Stare - 3:52
11 - No Time This Time - 3:18

EAC-Log, CUE-Sheed & NFO:

Click to open spoiler
Exact Audio Copy V0.99 prebeta 5 from 4. May 2009

EAC extraction logfile from 24. October 2009, 14:08

The Police / Reggatta de Blanc

Used drive : ASUS DRW-2014L1 Adapter: 0 ID: 0

Read mode : Secure
Utilize accurate stream : Yes
Defeat audio cache : Yes
Make use of C2 pointers : No

Read offset correction : 6
Overread into Lead-In and Lead-Out : No
Fill up missing offset samples with silence : Yes
Delete leading and trailing silent blocks : No
Null samples used in CRC calculations : Yes
Used interface : Native Win32 interface for Win NT & 2000
Gap handling : Appended to previous track

Used output format : User Defined Encoder
Selected bitrate : 1024 kBit/s
Quality : High
Add ID3 tag : No
Command line compressor : C:\Program Files\Exact Audio Copy\FLAC\FLAC.EXE
Additional command line options : -8 -V -T “ARTIST=%a” -T “TITLE=%t” -T “ALBUM=%g” -T “DATE=%y” -T “TRACKNUMBER=%n” -T “GENRE=%m” -T “COMMENT=EAC FLAC -8” %s

TOC of the extracted CD

Track | Start | Length | Start sector | End sector
———————————————————
1 | 0:00.00 | 4:51.07 | 0 | 21831
2 | 4:51.07 | 3:06.38 | 21832 | 35819
3 | 7:57.45 | 3:13.30 | 35820 | 50324
4 | 11:11.00 | 4:16.35 | 50325 | 69559
5 | 15:27.35 | 4:13.72 | 69560 | 88606
6 | 19:41.32 | 5:02.33 | 88607 | 111289
7 | 24:43.65 | 2:57.53 | 111290 | 124617
8 | 27:41.43 | 4:26.22 | 124618 | 144589
9 | 32:07.65 | 2:38.53 | 144590 | 156492
10 | 34:46.43 | 3:52.02 | 156493 | 173894
11 | 38:38.45 | 3:17.50 | 173895 | 188719

Track 1

Filename C:\The Police – Regatta De Blanc (1979) [FLAC] {A&M Records 069 493 596-2}\01 – Message in a Bottle.wav

Pre-gap length 0:00:02.00

Peak level 98.8 %
Track quality 100.0 %
Test CRC B69416C4
Copy CRC B69416C4
Accurately ripped (confidence 52) [22287780]
Copy OK

Track 2

Filename C:\The Police – Regatta De Blanc (1979) [FLAC] {A&M Records 069 493 596-2}\02 – Reggatta de Blanc.wav

Pre-gap length 0:00:00.61

Peak level 98.8 %
Track quality 100.0 %
Test CRC 084F35F9
Copy CRC 084F35F9
Accurately ripped (confidence 52) [F7590F5A]
Copy OK

Track 3

Filename C:\The Police – Regatta De Blanc (1979) [FLAC] {A&M Records 069 493 596-2}\03 – It’s Alright for You.wav

Pre-gap length 0:00:01.28

Peak level 98.8 %
Track quality 100.0 %
Test CRC 53870568
Copy CRC 53870568
Accurately ripped (confidence 52) [6E35D9E4]
Copy OK

Track 4

Filename C:\The Police – Regatta De Blanc (1979) [FLAC] {A&M Records 069 493 596-2}\04 – Bring on the Night.wav

Pre-gap length 0:00:01.29

Peak level 98.8 %
Track quality 100.0 %
Test CRC 1120F5EC
Copy CRC 1120F5EC
Accurately ripped (confidence 52) [3956CE57]
Copy OK

Track 5

Filename C:\The Police – Regatta De Blanc (1979) [FLAC] {A&M Records 069 493 596-2}\05 – Deathwish.wav

Pre-gap length 0:00:01.19

Peak level 98.8 %
Track quality 100.0 %
Test CRC 074869CB
Copy CRC 074869CB
Accurately ripped (confidence 52) [86DC8720]
Copy OK

Track 6

Filename C:\The Police – Regatta De Blanc (1979) [FLAC] {A&M Records 069 493 596-2}\06 – Walking on the Moon.wav

Pre-gap length 0:00:02.00

Peak level 98.8 %
Track quality 100.0 %
Test CRC 8847FC69
Copy CRC 8847FC69
Accurately ripped (confidence 50) [DC5189F0]
Copy OK

Track 7

Filename C:\The Police – Regatta De Blanc (1979) [FLAC] {A&M Records 069 493 596-2}\07 – On Any Other Day.wav

Pre-gap length 0:00:01.46

Peak level 98.8 %
Track quality 100.0 %
Test CRC 7B03EF67
Copy CRC 7B03EF67
Accurately ripped (confidence 51) [7C969267]
Copy OK

Track 8

Filename C:\The Police – Regatta De Blanc (1979) [FLAC] {A&M Records 069 493 596-2}\08 – The Bed’s Too Big Without You.wav

Pre-gap length 0:00:00.55

Peak level 98.8 %
Track quality 99.9 %
Test CRC B546F228
Copy CRC B546F228
Accurately ripped (confidence 50) [1A4714FC]
Copy OK

Track 9

Filename C:\The Police – Regatta De Blanc (1979) [FLAC] {A&M Records 069 493 596-2}\09 – Contact.wav

Pre-gap length 0:00:01.15

Peak level 98.8 %
Track quality 99.9 %
Test CRC ED1E464A
Copy CRC ED1E464A
Accurately ripped (confidence 52) [EF86822C]
Copy OK

Track 10

Filename C:\The Police – Regatta De Blanc (1979) [FLAC] {A&M Records 069 493 596-2}\10 – Does Everyone Stare.wav

Pre-gap length 0:00:01.28

Peak level 98.8 %
Track quality 100.0 %
Test CRC BB62C3CC
Copy CRC BB62C3CC
Accurately ripped (confidence 51) [CD4E2A87]
Copy OK

Track 11

Filename C:\The Police – Regatta De Blanc (1979) [FLAC] {A&M Records 069 493 596-2}\11 – No Time This Time.wav

Pre-gap length 0:00:04.04

Peak level 98.8 %
Track quality 100.0 %
Test CRC 77A0DC85
Copy CRC 77A0DC85
Accurately ripped (confidence 52) [9605EA98]
Copy OK

All tracks accurately ripped

No errors occurred

End of status report

REM GENRE Rock
REM DATE 1979
REM DISCID A509D40B
REM COMMENT “ExactAudioCopy v0.99pb5”
PERFORMER “The Police”
TITLE “Reggatta de Blanc”
FILE “01 – Message in a Bottle.wav” WAVE
TRACK 01 AUDIO
TITLE “Message in a Bottle”
PERFORMER “The Police”
INDEX 01 00:00:00
TRACK 02 AUDIO
TITLE “Reggatta de Blanc”
PERFORMER “The Police”
INDEX 00 04:50:21
FILE “02 – Reggatta de Blanc.wav” WAVE
INDEX 01 00:00:00
TRACK 03 AUDIO
TITLE “It’s Alright for You”
PERFORMER “The Police”
INDEX 00 03:05:10
FILE “03 – It’s Alright for You.wav” WAVE
INDEX 01 00:00:00
TRACK 04 AUDIO
TITLE “Bring on the Night”
PERFORMER “The Police”
INDEX 00 03:12:01
FILE “04 – Bring on the Night.wav” WAVE
INDEX 01 00:00:00
TRACK 05 AUDIO
TITLE “Deathwish”
PERFORMER “The Police”
INDEX 00 04:15:16
FILE “05 – Deathwish.wav” WAVE
INDEX 01 00:00:00
TRACK 06 AUDIO
TITLE “Walking on the Moon”
PERFORMER “The Police”
INDEX 00 04:11:72
FILE “06 – Walking on the Moon.wav” WAVE
INDEX 01 00:00:00
TRACK 07 AUDIO
TITLE “On Any Other Day”
PERFORMER “The Police”
INDEX 00 05:00:62
FILE “07 – On Any Other Day.wav” WAVE
INDEX 01 00:00:00
TRACK 08 AUDIO
TITLE “The Bed’s Too Big Without You”
PERFORMER “The Police”
INDEX 00 02:56:73
FILE “08 – The Bed’s Too Big Without You.wav” WAVE
INDEX 01 00:00:00
TRACK 09 AUDIO
TITLE “Contact”
PERFORMER “The Police”
INDEX 00 04:25:07
FILE “09 – Contact.wav” WAVE
INDEX 01 00:00:00
TRACK 10 AUDIO
TITLE “Does Everyone Stare”
PERFORMER “The Police”
INDEX 00 02:37:25
FILE “10 – Does Everyone Stare.wav” WAVE
INDEX 01 00:00:00
TRACK 11 AUDIO
TITLE “No Time This Time”
PERFORMER “The Police”
INDEX 00 03:47:73
FILE “11 – No Time This Time.wav” WAVE
INDEX 01 00:00:00


Spread the Download

Leave a Reply

Your email address will not be published. Required fields are marked *

Enter the text from the image below
 

This site uses Akismet to reduce spam. Learn how your comment data is processed.