The Exploited – Troops of tomorrow




[Total: 0    Average: 0/5]

Artist: The Exploited
Year: 1982/1989
Genre: Hardcore
Notes: Discogs
Add. Notes:
Cover incl.: Yes
Encoder: FLAC
Bitrate: ~800 kBit/s (44.1 kHz/16 Bit/s)
Log & Cue incl.: Yes
Size: 214,45 MB
Password: “slam” (without ” “)


All Downloads/Hosters are compatible

Download 1
Share-online.biz
Rapidgator.net
KatFile.com
UploadRar.com
Download 2
Share-online.biz
Rapidgator.net
KatFile.com
UploadRar.com

Tracklist:

1 - Jimmy Boyle 
2 - Daily News  
3 - Disorder 
4 - Alternative (Remix) 
5 - U.S.A. 
6 - Rapist  
7 - Troops Of Tomorrow 
8 - U.K. 82 
9 - Sid Vicious Was Innocent 
10 - War 
11 - They Won't Stop 
12 - So Tragic 
13 - Germs 
14 - Dead Cities 
15 - Attack 
16 - Computors Don't Blunder

EAC-Log, CUE-Sheed & NFO:

Click to open spoiler
Exact Audio Copy V0.99 prebeta 5 from 4. May 2009

Отчёт EAC об извлечении, выполненном 9. сентября 2009, 23:26

The Exploited / Troops of tomorrow

Дисковод: SONY DVD-ROM DDU1621 Adapter: 1 ID: 1

Режим чтения : Достоверность
Использование точного потока : Да
Отключение кэша аудио : Да
Использование указателей C2 : Нет

Коррекция смещения при чтении : 12
Способность читать области Lead-in и Lead-out : Нет
Заполнение пропущенных сэмплов тишиной : Да
Удаление блоков с тишиной в начале и конце : Нет
При вычислениях CRC использовались нулевые сэмплы : Да
Интерфейс : Установленный внешний ASPI-интерфейс

Выходной формат : Внутренние WAV-операции
Формат сэмплов : 44.100 Гц; 16 бит; стерео

TOC извлечённого CD

Трек | Старт | Длительность | Начальный сектор | Конечный сектор
———————————————————————
1 | 0:00.38 | 2:09.17 | 38 | 9729
2 | 2:09.55 | 2:58.65 | 9730 | 23144
3 | 5:08.45 | 2:19.23 | 23145 | 33592
4 | 7:27.68 | 2:05.70 | 33593 | 43037
5 | 9:33.63 | 3:20.70 | 43038 | 58107
6 | 12:54.58 | 1:27.42 | 58108 | 64674
7 | 14:22.25 | 4:57.00 | 64675 | 86949
8 | 19:19.25 | 2:48.60 | 86950 | 99609
9 | 22:08.10 | 2:59.30 | 99610 | 113064
10 | 25:07.40 | 3:49.15 | 113065 | 130254
11 | 28:56.55 | 2:19.68 | 130255 | 140747
12 | 31:16.48 | 1:49.42 | 140748 | 148964
13 | 33:06.15 | 4:40.70 | 148965 | 170034

Характеристики диапазона извлечения и сообщения об ошибках

Выбранный диапазон

Имя файла F:\Загрузки\Exploited\Exploited-Troops Of Tommorow\The Exploited – Troops of tomorrow.wav

Пиковый уровень 93.9 %
Качество диапазона 100.0 %
CRC теста 5B5FB2AB
CRC копии 5B5FB2AB
Копирование… OK

Ошибок не произошло

AccurateRip: сводка

Трек 1 нет в базе данных
Трек 2 нет в базе данных
Трек 3 нет в базе данных
Трек 4 нет в базе данных
Трек 5 нет в базе данных
Трек 6 нет в базе данных
Трек 7 нет в базе данных
Трек 8 нет в базе данных
Трек 9 нет в базе данных
Трек 10 нет в базе данных
Трек 11 нет в базе данных
Трек 12 нет в базе данных
Трек 13 нет в базе данных

Ни одного трека нет в базе AccurateRip

Конец отчёта

REM GENRE Punk
REM DATE 1982
REM DISCID B708DB0D
REM COMMENT “ExactAudioCopy v0.99pb5”
PERFORMER “The Exploited”
TITLE “Troops of tomorrow ”
FILE “The Exploited – Troops of tomorrow.wav” WAVE
TRACK 01 AUDIO
TITLE “Jimmy Boyle”
PERFORMER “The Exploited”
INDEX 00 00:00:00
INDEX 01 00:00:38
TRACK 02 AUDIO
TITLE “Daily News”
PERFORMER “The Exploited”
INDEX 01 02:09:55
TRACK 03 AUDIO
TITLE “Disorder”
PERFORMER “The Exploited”
INDEX 01 05:08:45
TRACK 04 AUDIO
TITLE “Alternative”
PERFORMER “The Exploited”
INDEX 01 07:27:68
TRACK 05 AUDIO
TITLE “U.S.A.”
PERFORMER “The Exploited”
INDEX 01 09:33:63
TRACK 06 AUDIO
TITLE “Rapist”
PERFORMER “The Exploited”
INDEX 01 12:54:58
TRACK 07 AUDIO
TITLE “Troops Of Tomorrow”
PERFORMER “The Exploited”
INDEX 01 14:22:25
TRACK 08 AUDIO
TITLE “UK 82”
PERFORMER “The Exploited”
INDEX 00 19:18:18
INDEX 01 19:19:25
TRACK 09 AUDIO
TITLE “Sid Vicious Was Inncent”
PERFORMER “The Exploited”
INDEX 00 22:07:43
INDEX 01 22:08:10
TRACK 10 AUDIO
TITLE “War”
PERFORMER “The Exploited”
INDEX 01 25:07:40
TRACK 11 AUDIO
TITLE “They Won’t Stop”
PERFORMER “The Exploited”
INDEX 00 28:56:00
INDEX 01 28:56:55
TRACK 12 AUDIO
TITLE “So Tragic”
PERFORMER “The Exploited”
INDEX 01 31:16:48
TRACK 13 AUDIO
TITLE “Germs”
PERFORMER “The Exploited”
INDEX 01 33:06:15


Spread the Download

Leave a Reply

Your email address will not be published. Required fields are marked *

Enter the text from the image below
 

This site uses Akismet to reduce spam. Learn how your comment data is processed.