The Cat Empire – The Cat Empire




[Total: 0    Average: 0/5]

Artist: The Cat Empire
Year: 2003
Genre: Rock
Notes: Discogs
Add. Notes:
Cover incl.: Yes
Encoder: FLAC
Bitrate: ~900 kBit/s (44.1 kHz/16 Bit/s)
Log & Cue incl.: Yes
Size: 358,53 MB
Password: “slam” (without ” “)


All Downloads/Hosters are compatible

Download 1
Share-online.biz
Rapidgator.net
KatFile.com
UploadRar.com
Download 2
Share-online.biz
Rapidgator.net
KatFile.com
UploadRar.com

Tracklist:

1 - How To Explain? - 3:38
2 - Days Like These - 4:08
3 - The Lost Song - 3:16
4 - The Chariot - 5:34
5 - Hello - 3:44
6 - One Four Five - 3:25
7 - The Rhythm - 3:25
8 - The Wine Song - 7:22
9 - Nothing - 3:40
10 - Beanni - 2:19
11 - The Crowd - 5:14
12 - Manifesto - 2:34
13 - All That Talking - 6:54

EAC-Log, CUE-Sheed & NFO:

Click to open spoiler
EAC extraction logfile from 28. June 2006, 17:33 for CD
The Cat Empire / The Cat Empire

Used drive : HL-DT-STDVDRAM GSA-4163B Adapter: 1 ID: 0
Read mode : Secure with NO C2, accurate stream, disable cache
Read offset correction : 667
Overread into Lead-In and Lead-Out : No

Used output format : C:\Program Files\FLAC\flac.exe (User Defined Encoder)
128 kBit/s
Additional command line options : -V -8 -T “artist=%a” -T “title=%t” -T “album=%g” -T “date=%y” -T “tracknumber=%n” -T “genre=%m” %s

Other options :
Fill up missing offset samples with silence : Yes
Delete leading and trailing silent blocks : No
Native Win32 interface for Win NT & 2000

Track 1
Filename C:\Documents and Settings\lars\Desktop\convert\the cat empire\01 – How to Explain.wav

Pre-gap length 0:00:02.00

Peak level 98.8 %
Track quality 99.9 %
Test CRC 2FC1548D
Copy CRC 2FC1548D
Copy OK

Track 2
Filename C:\Documents and Settings\lars\Desktop\convert\the cat empire\02 – Days Like These.wav

Peak level 100.0 %
Track quality 100.0 %
Test CRC 950A59B3
Copy CRC 950A59B3
Copy OK

Track 3
Filename C:\Documents and Settings\lars\Desktop\convert\the cat empire\03 – The Lost Song.wav

Peak level 98.8 %
Track quality 100.0 %
Test CRC 0D6B07CA
Copy CRC 0D6B07CA
Copy OK

Track 4
Filename C:\Documents and Settings\lars\Desktop\convert\the cat empire\04 – The Chariot.wav

Peak level 98.8 %
Track quality 99.9 %
Test CRC BA44AEFB
Copy CRC BA44AEFB
Copy OK

Track 5
Filename C:\Documents and Settings\lars\Desktop\convert\the cat empire\05 – Hello.wav

Peak level 98.8 %
Track quality 99.9 %
Test CRC 3F0555B5
Copy CRC 3F0555B5
Copy OK

Track 6
Filename C:\Documents and Settings\lars\Desktop\convert\the cat empire\06 – One Four Five.wav

Peak level 98.8 %
Track quality 100.0 %
Test CRC 6286ACA8
Copy CRC 6286ACA8
Copy OK

Track 7
Filename C:\Documents and Settings\lars\Desktop\convert\the cat empire\07 – The Rhythm.wav

Peak level 98.8 %
Track quality 99.9 %
Test CRC BA540569
Copy CRC BA540569
Copy OK

Track 8
Filename C:\Documents and Settings\lars\Desktop\convert\the cat empire\08 – The Wine Song.wav

Peak level 98.8 %
Track quality 100.0 %
Test CRC 3C95D456
Copy CRC 3C95D456
Copy OK

Track 9
Filename C:\Documents and Settings\lars\Desktop\convert\the cat empire\09 – Nothing.wav

Peak level 98.8 %
Track quality 100.0 %
Test CRC D5BB0556
Copy CRC D5BB0556
Copy OK

Track 10
Filename C:\Documents and Settings\lars\Desktop\convert\the cat empire\10 – Beanni.wav

Peak level 98.8 %
Track quality 100.0 %
Test CRC 40EEE116
Copy CRC 40EEE116
Copy OK

Track 11
Filename C:\Documents and Settings\lars\Desktop\convert\the cat empire\11 – The Crowd.wav

Peak level 98.8 %
Track quality 100.0 %
Test CRC 7A5932B3
Copy CRC 7A5932B3
Copy OK

Track 12
Filename C:\Documents and Settings\lars\Desktop\convert\the cat empire\12 – Manifesto.wav

Peak level 98.8 %
Track quality 100.0 %
Test CRC B83AFCC1
Copy CRC B83AFCC1
Copy OK

Track 13
Filename C:\Documents and Settings\lars\Desktop\convert\the cat empire\13 – All That Talking.wav

Peak level 98.8 %
Track quality 100.0 %
Test CRC C496991B
Copy CRC C496991B
Copy OK

No errors occured

End of status report

REM GENRE Jazz+Funk
REM DATE 2003
REM DISCID BD11560E
REM COMMENT “ExactAudioCopy v0.95b4”
PERFORMER “The Cat Empire”
TITLE “The Cat Empire”
FILE “01 – How to Explain.wav” WAVE
TRACK 01 AUDIO
TITLE “How to Explain”
PERFORMER “The Cat Empire”
INDEX 01 00:00:00
FILE “02 – Days Like These.wav” WAVE
TRACK 02 AUDIO
TITLE “Days Like These”
PERFORMER “The Cat Empire”
INDEX 01 00:00:00
FILE “03 – The Lost Song.wav” WAVE
TRACK 03 AUDIO
TITLE “The Lost Song”
PERFORMER “The Cat Empire”
INDEX 01 00:00:00
FILE “04 – The Chariot.wav” WAVE
TRACK 04 AUDIO
TITLE “The Chariot”
PERFORMER “The Cat Empire”
INDEX 01 00:00:00
FILE “05 – Hello.wav” WAVE
TRACK 05 AUDIO
TITLE “Hello”
PERFORMER “The Cat Empire”
INDEX 01 00:00:00
FILE “06 – One Four Five.wav” WAVE
TRACK 06 AUDIO
TITLE “One Four Five”
PERFORMER “The Cat Empire”
INDEX 01 00:00:00
FILE “07 – The Rhythm.wav” WAVE
TRACK 07 AUDIO
TITLE “The Rhythm”
PERFORMER “The Cat Empire”
INDEX 01 00:00:00
FILE “08 – The Wine Song.wav” WAVE
TRACK 08 AUDIO
TITLE “The Wine Song”
PERFORMER “The Cat Empire”
INDEX 01 00:00:00
FILE “09 – Nothing.wav” WAVE
TRACK 09 AUDIO
TITLE “Nothing”
PERFORMER “The Cat Empire”
INDEX 01 00:00:00
FILE “10 – Beanni.wav” WAVE
TRACK 10 AUDIO
TITLE “Beanni”
PERFORMER “The Cat Empire”
INDEX 01 00:00:00
FILE “11 – The Crowd.wav” WAVE
TRACK 11 AUDIO
TITLE “The Crowd”
PERFORMER “The Cat Empire”
INDEX 01 00:00:00
FILE “12 – Manifesto.wav” WAVE
TRACK 12 AUDIO
TITLE “Manifesto”
PERFORMER “The Cat Empire”
INDEX 01 00:00:00
FILE “13 – All That Talking.wav” WAVE
TRACK 13 AUDIO
TITLE “All That Talking”
PERFORMER “The Cat Empire”
INDEX 01 00:00:00
TRACK 14 MODEx/2xxx
TITLE “Hidden”
PERFORMER “The Cat Empire”
INDEX 00 06:54:23


Spread the Download

Leave a Reply

Your email address will not be published. Required fields are marked *

Enter the text from the image below
 

This site uses Akismet to reduce spam. Learn how your comment data is processed.