The Cat Empire – On The Attack




[Total: 0    Average: 0/5]

Artist: The Cat Empire
Year: 2004
Genre: Alternative
Notes: Discogs
Add. Notes:
Cover incl.: Yes
Encoder: FLAC
Bitrate: ~800 kBit/s (44.1 kHz/16 Bit/s)
Log & Cue incl.: Yes
Size: 391,15 MB
Password: “slam” (without ” “)


All Downloads/Hosters are compatible

Download 1
Share-online.biz
Rapidgator.net
KatFile.com
UploadRar.com
Download 2
Share-online.biz
Rapidgator.net
KatFile.com
UploadRar.com

Tracklist:

1 - Intro - 5:03
2 - How To Explain? - 10:58
3 - The Crowd - 7:38
4 - The Rhythm - 11:19
5 - The Lost Song - 5:35
6 - The Sun - 6:55
7 - L'Hôtel De Californie - 4:41
8 - Days Like These - 7:17

EAC-Log, CUE-Sheed & NFO:

Click to open spoiler
Exact Audio Copy V0.99 prebeta 5 from 4. May 2009

EAC extraction logfile from 26. May 2010, 15:48

The Cat Empire / On The Attack

Used drive : PIONEER DVD-RW DVR-217 Adapter: 3 ID: 0

Read mode : Secure
Utilize accurate stream : Yes
Defeat audio cache : Yes
Make use of C2 pointers : No

Read offset correction : 96
Overread into Lead-In and Lead-Out : No
Fill up missing offset samples with silence : Yes
Delete leading and trailing silent blocks : No
Null samples used in CRC calculations : Yes
Used interface : Native Win32 interface for Win NT & 2000
Gap handling : Not detected, thus appended to previous track

Used output format : User Defined Encoder
Selected bitrate : 320 kBit/s
Quality : High
Add ID3 tag : No
Command line compressor : C:\Program Files (x86)\Exact Audio Copy\FLAC\FLAC.EXE
Additional command line options : -V -8 -T “artist=%a” -T “title=%t” -T “album=%g” -T “date=%y” -T “tracknumber=%n” -T “genre=%m” %s

TOC of the extracted CD

Track | Start | Length | Start sector | End sector
———————————————————
1 | 0:00.00 | 5:02.32 | 0 | 22681
2 | 5:02.32 | 10:57.58 | 22682 | 72014
3 | 16:00.15 | 7:37.52 | 72015 | 106341
4 | 23:37.67 | 11:18.60 | 106342 | 157251
5 | 34:56.52 | 5:35.20 | 157252 | 182396
6 | 40:31.72 | 6:54.40 | 182397 | 213486
7 | 47:26.37 | 4:40.33 | 213487 | 234519
8 | 52:06.70 | 7:17.02 | 234520 | 267296
9 | 61:55.72 | 12:02.03 | 278697 | 332849

Track 1

Filename I:\FLAC\The Cat Empire – 2004 – On The Attack\01 – Intro.wav

Peak level 100.0 %
Track quality 99.5 %
Test CRC 9DDF7291
Copy CRC 9DDF7291
Track not present in AccurateRip database
Copy OK

Track 2

Filename I:\FLAC\The Cat Empire – 2004 – On The Attack\02 – How to Explain .wav

Peak level 100.0 %
Track quality 99.8 %
Test CRC 5F686FA8
Copy CRC 5F686FA8
Cannot be verified as accurate (confidence 2) [22DD2104], AccurateRip returned [86D5E1E6]
Copy OK

Track 3

Filename I:\FLAC\The Cat Empire – 2004 – On The Attack\03 – The Crowd.wav

Peak level 100.0 %
Track quality 99.6 %
Test CRC B63447D3
Copy CRC B63447D3
Cannot be verified as accurate (confidence 2) [37D35A41], AccurateRip returned [F51C7113]
Copy OK

Track 4

Filename I:\FLAC\The Cat Empire – 2004 – On The Attack\04 – The Rhythm.wav

Peak level 100.0 %
Track quality 99.8 %
Test CRC AE7FA051
Copy CRC AE7FA051
Cannot be verified as accurate (confidence 2) [6A293258], AccurateRip returned [D1A985A8]
Copy OK

Track 5

Filename I:\FLAC\The Cat Empire – 2004 – On The Attack\05 – The Lost Song.wav

Peak level 100.0 %
Track quality 99.8 %
Test CRC C84A2599
Copy CRC C84A2599
Cannot be verified as accurate (confidence 2) [EA509F3D], AccurateRip returned [AD12542B]
Copy OK

Track 6

Filename I:\FLAC\The Cat Empire – 2004 – On The Attack\06 – The Sun.wav

Peak level 100.0 %
Track quality 99.7 %
Test CRC D9B1184B
Copy CRC D9B1184B
Track not present in AccurateRip database
Copy OK

Track 7

Filename I:\FLAC\The Cat Empire – 2004 – On The Attack\07 – L’hôtel de Californie.wav

Peak level 100.0 %
Track quality 99.7 %
Test CRC 50DE0622
Copy CRC 50DE0622
Cannot be verified as accurate (confidence 2) [E9FDAC7C], AccurateRip returned [C1E6BA60]
Copy OK

Track 8

Filename I:\FLAC\The Cat Empire – 2004 – On The Attack\08 – Days Like These.wav

Peak level 100.0 %
Track quality 99.8 %
Test CRC 67B535F8
Copy CRC 67B535F8
Cannot be verified as accurate (confidence 2) [50915D18], AccurateRip returned [2628068A]
Copy OK

6 track(s) could not be verified as accurate
2 track(s) not present in the AccurateRip database

No tracks could be verified as accurate
You may have a different pressing from the one(s) in the database

No errors occurred

End of status report

REM GENRE Alternative
REM DATE 2004
REM DISCID 7E115609
REM COMMENT “ExactAudioCopy v0.99pb5”
FILE “01 – Intro.wav” WAVE
TRACK 01 AUDIO
INDEX 01 00:00:00
FILE “02 – How to Explain .wav” WAVE
TRACK 02 AUDIO
INDEX 01 00:00:00
FILE “03 – The Crowd.wav” WAVE
TRACK 03 AUDIO
INDEX 01 00:00:00
FILE “04 – The Rhythm.wav” WAVE
TRACK 04 AUDIO
INDEX 01 00:00:00
FILE “05 – The Lost Song.wav” WAVE
TRACK 05 AUDIO
INDEX 01 00:00:00
FILE “06 – The Sun.wav” WAVE
TRACK 06 AUDIO
INDEX 01 00:00:00
FILE “07 – L’hôtel de Californie.wav” WAVE
TRACK 07 AUDIO
INDEX 01 00:00:00
TRACK 08 AUDIO
INDEX 00 04:38:15
FILE “08 – Days Like These.wav” WAVE
INDEX 01 00:00:00
TRACK 09 MODEx/2xxx
INDEX 00 07:17:02


Spread the Download

Leave a Reply

Your email address will not be published. Required fields are marked *

Enter the text from the image below
 

This site uses Akismet to reduce spam. Learn how your comment data is processed.