The Beatles – Abbey Road (Japanese Edition)




[Total: 0    Average: 0/5]

Artist: The Beatles
Year: 1969/1987
Genre: Rock
Notes: Discogs
Add. Notes: Japanese Edition
Cover incl.: Yes
Encoder: FLAC
Bitrate: ~800 kBit/s (44.1 kHz/16 Bit/s)
Log & Cue incl.: Yes
Size: 305,87 MB
Password: “slam” (without ” “)


All Downloads/Hosters are compatible

Download 1
Share-online.biz
Rapidgator.net
KatFile.com
UploadRar.com
Download 2
Share-online.biz
Rapidgator.net
KatFile.com
UploadRar.com

Tracklist:

1 - Come Together - 4:20
2 - Something - 3:02
3 - Maxwell's Silver Hammer - 3:28
4 - Oh! Darling - 3:27
5 - Octopus's Garden - 2:51
6 - I Want You (She's So Heavy) - 7:46
7 - Here's Comes The Sun - 3:05
8 - Because - 2:46
9 - You Never Give Me Your Money - 3:57
10 - Sun King - 2:31
11 - Mean Mr. Mustard - 1:06
12 - Polythene Pam - 1:18
13 - She Came In Though The Bathroom Window - 1:53
14 - Golden Slumbers - 1:31
15 - Carry That Weight - 1:36
16 - The End - 2:21
17 - Her Majesty - 0:25

EAC-Log, CUE-Sheed & NFO:

Click to open spoiler
X Lossless Decoder version 20110924 (136.3)

XLD extraction logfile from 2011-10-15 10:29:59 +0000

The Beatles / Abbey Road [Toshiba Black Triangle]

Used drive : OPTIARC DVD RW AD-5960S (revision 2AP5)

Ripper mode : XLD Secure Ripper
Disable audio cache : OK for the drive with a cache less than 1375KiB
Make use of C2 pointers : NO
Read offset correction : 48
Max retry count : 20
Gap status : Analyzed, Appended

TOC of the extracted CD
Track | Start | Length | Start sector | End sector
———————————————————
1 | 00:00:00 | 04:20:05 | 0 | 19504
2 | 04:20:05 | 03:02:37 | 19505 | 33191
3 | 07:22:42 | 03:27:43 | 33192 | 48759
4 | 10:50:10 | 03:27:05 | 48760 | 64289
5 | 14:17:15 | 02:50:47 | 64290 | 77086
6 | 17:07:62 | 07:46:13 | 77087 | 112049
7 | 24:54:00 | 03:05:10 | 112050 | 125934
8 | 27:59:10 | 02:46:10 | 125935 | 138394
9 | 30:45:20 | 03:57:00 | 138395 | 156169
10 | 34:42:20 | 02:31:25 | 156170 | 167519
11 | 37:13:45 | 01:06:15 | 167520 | 172484
12 | 38:19:60 | 01:18:27 | 172485 | 178361
13 | 39:38:12 | 01:52:68 | 178362 | 186829
14 | 41:31:05 | 01:31:17 | 186830 | 193671
15 | 43:02:22 | 01:36:23 | 193672 | 200894
16 | 44:38:45 | 02:20:65 | 200895 | 211459
17 | 46:59:35 | 00:25:15 | 211460 | 213349

List of alternate offset correction values
# | Absolute | Relative | Confidence
——————————————
1 | 195 | 147 | 17
2 | -50 | -98 | 8
3 | 201 | 153 | 3
4 | 213 | 165 | 2
5 | 225 | 177 | 2

AccurateRip Summary
Track 01 : OK (confidence 2)
Track 02 : OK (confidence 2)
Track 03 : OK (confidence 2)
Track 04 : OK (confidence 2)
Track 05 : OK (confidence 2)
Track 06 : OK (confidence 2)
Track 07 : OK (confidence 2)
Track 08 : OK (confidence 2)
Track 09 : OK (confidence 2)
Track 10 : OK (confidence 2)
Track 11 : OK (confidence 2)
Track 12 : OK (confidence 2)
Track 13 : OK (confidence 2)
Track 14 : OK (confidence 2)
Track 15 : OK (confidence 2)
Track 16 : OK (confidence 2)
Track 17 : OK (confidence 2)
->All tracks accurately ripped.

All Tracks
Filename : The Beatles – Abbey Road (Black Triangle)/01 The Beatles – Abbey Road [Toshiba Black Triangle].flac
Album gain : -0.79 dB
Peak : 0.871399
CRC32 hash (test run) : 649DD894
CRC32 hash : 649DD894
CRC32 hash (skip zero) : 697B4CAB
Statistics
Read error : 0
Jitter error (maybe fixed) : 0
Retry sector count : 0
Damaged sector count : 0

Track 01
Pre-gap length : 00:02:00

Track gain : 2.02 dB
Peak : 0.790344
CRC32 hash (test run) : AF0A25E0
CRC32 hash : AF0A25E0
CRC32 hash (skip zero) : A17E7BEF
AccurateRip signature : 5F396609
->Accurately ripped! (confidence 2)
Statistics
Read error : 0
Jitter error (maybe fixed) : 0
Retry sector count : 0
Damaged sector count : 0

Track 02
Pre-gap length : 00:01:68

Track gain : 0.04 dB
Peak : 0.594971
CRC32 hash (test run) : 2B152E50
CRC32 hash : 2B152E50
CRC32 hash (skip zero) : D1765066
AccurateRip signature : DD942F65
->Accurately ripped! (confidence 2)
Statistics
Read error : 0
Jitter error (maybe fixed) : 0
Retry sector count : 0
Damaged sector count : 0

Track 03
Pre-gap length : 00:01:02

Track gain : -1.29 dB
Peak : 0.763855
CRC32 hash (test run) : 336B3BB5
CRC32 hash : 336B3BB5
CRC32 hash (skip zero) : AE74872E
AccurateRip signature : E2AF98F7
->Accurately ripped! (confidence 2)
Statistics
Read error : 0
Jitter error (maybe fixed) : 0
Retry sector count : 0
Damaged sector count : 0

Track 04

Track gain : -0.97 dB
Peak : 0.626709
CRC32 hash (test run) : 9B330EC7
CRC32 hash : 9B330EC7
CRC32 hash (skip zero) : 406BBF77
AccurateRip signature : 19296601
->Accurately ripped! (confidence 2)
Statistics
Read error : 0
Jitter error (maybe fixed) : 0
Retry sector count : 0
Damaged sector count : 0

Track 05

Track gain : -0.88 dB
Peak : 0.666870
CRC32 hash (test run) : 7353D9C3
CRC32 hash : 7353D9C3
CRC32 hash (skip zero) : 75C5E223
AccurateRip signature : 8049BBBE
->Accurately ripped! (confidence 2)
Statistics
Read error : 0
Jitter error (maybe fixed) : 0
Retry sector count : 0
Damaged sector count : 0

Track 06
Pre-gap length : 00:01:40

Track gain : -1.39 dB
Peak : 0.628510
CRC32 hash (test run) : E6063285
CRC32 hash : E6063285
CRC32 hash (skip zero) : 4484D0D1
AccurateRip signature : 0B6EFBFB
->Accurately ripped! (confidence 2)
Statistics
Read error : 0
Jitter error (maybe fixed) : 0
Retry sector count : 0
Damaged sector count : 0

Track 07
Pre-gap length : 00:01:10

Track gain : 1.60 dB
Peak : 0.871399
CRC32 hash (test run) : 3250245B
CRC32 hash : 3250245B
CRC32 hash (skip zero) : 2B92E533
AccurateRip signature : 713DF78C
->Accurately ripped! (confidence 2)
Statistics
Read error : 0
Jitter error (maybe fixed) : 0
Retry sector count : 0
Damaged sector count : 0

Track 08

Track gain : 2.22 dB
Peak : 0.418549
CRC32 hash (test run) : B1C2CD1B
CRC32 hash : B1C2CD1B
CRC32 hash (skip zero) : 5FF361A2
AccurateRip signature : 290E4572
->Accurately ripped! (confidence 2)
Statistics
Read error : 0
Jitter error (maybe fixed) : 0
Retry sector count : 0
Damaged sector count : 0

Track 09

Track gain : 0.02 dB
Peak : 0.560089
CRC32 hash (test run) : 26990588
CRC32 hash : 26990588
CRC32 hash (skip zero) : B00D71C8
AccurateRip signature : 768B1665
->Accurately ripped! (confidence 2)
Statistics
Read error : 0
Jitter error (maybe fixed) : 0
Retry sector count : 0
Damaged sector count : 0

Track 10

Track gain : 6.12 dB
Peak : 0.404175
CRC32 hash (test run) : 9D1039E5
CRC32 hash : 9D1039E5
CRC32 hash (skip zero) : 4F44C30F
AccurateRip signature : 89011866
->Accurately ripped! (confidence 2)
Statistics
Read error : 0
Jitter error (maybe fixed) : 0
Retry sector count : 0
Damaged sector count : 0

Track 11

Track gain : -1.16 dB
Peak : 0.710266
CRC32 hash (test run) : 6AF0BADD
CRC32 hash : 6AF0BADD
CRC32 hash (skip zero) : E19F48F4
AccurateRip signature : A11B313D
->Accurately ripped! (confidence 2)
Statistics
Read error : 0
Jitter error (maybe fixed) : 0
Retry sector count : 0
Damaged sector count : 0

Track 12

Track gain : -1.81 dB
Peak : 0.707275
CRC32 hash (test run) : 01282E21
CRC32 hash : 01282E21
CRC32 hash (skip zero) : 2F831DDC
AccurateRip signature : FDE157E0
->Accurately ripped! (confidence 2)
Statistics
Read error : 0
Jitter error (maybe fixed) : 0
Retry sector count : 0
Damaged sector count : 0

Track 13

Track gain : -1.89 dB
Peak : 0.715607
CRC32 hash (test run) : 22157387
CRC32 hash : 22157387
CRC32 hash (skip zero) : 1F68BAFA
AccurateRip signature : DAC908C9
->Accurately ripped! (confidence 2)
Statistics
Read error : 0
Jitter error (maybe fixed) : 0
Retry sector count : 0
Damaged sector count : 0

Track 14

Track gain : 1.45 dB
Peak : 0.640991
CRC32 hash (test run) : 42B4B301
CRC32 hash : 42B4B301
CRC32 hash (skip zero) : 50B67F94
AccurateRip signature : 03AD73AF
->Accurately ripped! (confidence 2)
Statistics
Read error : 0
Jitter error (maybe fixed) : 0
Retry sector count : 0
Damaged sector count : 0

Track 15

Track gain : -0.23 dB
Peak : 0.606201
CRC32 hash (test run) : B22EA25C
CRC32 hash : B22EA25C
CRC32 hash (skip zero) : B8411908
AccurateRip signature : BA2E0F8A
->Accurately ripped! (confidence 2)
Statistics
Read error : 0
Jitter error (maybe fixed) : 0
Retry sector count : 0
Damaged sector count : 0

Track 16

Track gain : -1.93 dB
Peak : 0.791687
CRC32 hash (test run) : 116B5823
CRC32 hash : 116B5823
CRC32 hash (skip zero) : D5A1DF2E
AccurateRip signature : 51C68F9C
->Accurately ripped! (confidence 2)
Statistics
Read error : 0
Jitter error (maybe fixed) : 0
Retry sector count : 0
Damaged sector count : 0

Track 17
Pre-gap length : 00:15:00

Track gain : 9.59 dB
Peak : 0.425842
CRC32 hash (test run) : 0DC30600
CRC32 hash : 0DC30600
CRC32 hash (skip zero) : 8347B5CF
AccurateRip signature : 5D4333A4
->Accurately ripped! (confidence 2)
Statistics
Read error : 0
Jitter error (maybe fixed) : 0
Retry sector count : 0
Damaged sector count : 0

No errors occurred

End of status report

TITLE “Abbey Road [Toshiba Black Triangle]”
PERFORMER “The Beatles”
REM GENRE “Rock”
REM DATE “1969”
REM DISCID EE0B1C11
REM REPLAYGAIN_ALBUM_GAIN -0.79 dB
REM REPLAYGAIN_ALBUM_PEAK 0.871399
FILE “01 The Beatles – Abbey Road [Toshiba Black Triangle].flac” WAVE
TRACK 01 AUDIO
TITLE “Come Together”
REM REPLAYGAIN_TRACK_GAIN 2.02 dB
REM REPLAYGAIN_TRACK_PEAK 0.790344
INDEX 01 00:00:00
TRACK 02 AUDIO
TITLE “Something”
REM REPLAYGAIN_TRACK_GAIN 0.04 dB
REM REPLAYGAIN_TRACK_PEAK 0.594971
INDEX 00 04:18:12
INDEX 01 04:20:05
TRACK 03 AUDIO
TITLE “Maxwell’s Silver Hammer”
REM REPLAYGAIN_TRACK_GAIN -1.29 dB
REM REPLAYGAIN_TRACK_PEAK 0.763855
INDEX 00 07:21:40
INDEX 01 07:22:42
TRACK 04 AUDIO
TITLE “Oh! Darling”
REM REPLAYGAIN_TRACK_GAIN -0.97 dB
REM REPLAYGAIN_TRACK_PEAK 0.626709
INDEX 01 10:50:10
TRACK 05 AUDIO
TITLE “Octopus’s Garden”
REM REPLAYGAIN_TRACK_GAIN -0.88 dB
REM REPLAYGAIN_TRACK_PEAK 0.666870
INDEX 01 14:17:15
TRACK 06 AUDIO
TITLE “I Want You (She’s So Heavy)”
REM REPLAYGAIN_TRACK_GAIN -1.39 dB
REM REPLAYGAIN_TRACK_PEAK 0.628510
INDEX 00 17:06:22
INDEX 01 17:07:62
TRACK 07 AUDIO
TITLE “Here Comes The Sun”
REM REPLAYGAIN_TRACK_GAIN 1.60 dB
REM REPLAYGAIN_TRACK_PEAK 0.871399
INDEX 00 24:52:65
INDEX 01 24:54:00
TRACK 08 AUDIO
TITLE “Because”
REM REPLAYGAIN_TRACK_GAIN 2.22 dB
REM REPLAYGAIN_TRACK_PEAK 0.418549
INDEX 01 27:59:10
TRACK 09 AUDIO
TITLE “You Never Give Me Your Money”
REM REPLAYGAIN_TRACK_GAIN 0.02 dB
REM REPLAYGAIN_TRACK_PEAK 0.560089
INDEX 01 30:45:20
TRACK 10 AUDIO
TITLE “Sun King”
REM REPLAYGAIN_TRACK_GAIN 6.12 dB
REM REPLAYGAIN_TRACK_PEAK 0.404175
INDEX 01 34:42:20
TRACK 11 AUDIO
TITLE “Mean Mr. Mustard”
REM REPLAYGAIN_TRACK_GAIN -1.16 dB
REM REPLAYGAIN_TRACK_PEAK 0.710266
INDEX 01 37:13:45
TRACK 12 AUDIO
TITLE “Polythene Pam”
REM REPLAYGAIN_TRACK_GAIN -1.81 dB
REM REPLAYGAIN_TRACK_PEAK 0.707275
INDEX 01 38:19:60
TRACK 13 AUDIO
TITLE “She Came In Through The Bathroom Window”
REM REPLAYGAIN_TRACK_GAIN -1.89 dB
REM REPLAYGAIN_TRACK_PEAK 0.715607
INDEX 01 39:38:12
TRACK 14 AUDIO
TITLE “Golden Slumbers”
REM REPLAYGAIN_TRACK_GAIN 1.45 dB
REM REPLAYGAIN_TRACK_PEAK 0.640991
INDEX 01 41:31:05
TRACK 15 AUDIO
TITLE “Carry That Weight”
REM REPLAYGAIN_TRACK_GAIN -0.23 dB
REM REPLAYGAIN_TRACK_PEAK 0.606201
INDEX 01 43:02:22
TRACK 16 AUDIO
TITLE “The End”
REM REPLAYGAIN_TRACK_GAIN -1.93 dB
REM REPLAYGAIN_TRACK_PEAK 0.791687
INDEX 01 44:38:45
TRACK 17 AUDIO
TITLE “Her Majesty”
REM REPLAYGAIN_TRACK_GAIN 9.59 dB
REM REPLAYGAIN_TRACK_PEAK 0.425842
INDEX 00 46:44:35
INDEX 01 46:59:35


Spread the Download

Leave a Reply

Your email address will not be published. Required fields are marked *

Enter the text from the image below
 

This site uses Akismet to reduce spam. Learn how your comment data is processed.