Suicidal Tendencies – 13




[Total: 0    Average: 0/5]

Artist: Suicidal Tendencies
Year: 2013
Genre: Metal
Notes: Discogs
Add. Notes:
Cover incl.: Yes
Encoder: FLAC
Bitrate: ~1000 kBit/s (44.1 kHz/16 Bit/s)
Log & Cue incl.: Yes
Size: 488,14 MB
Password: “slam” (without ” “)


All Downloads/Hosters are compatible

Download 1
Share-online.biz
Rapidgator.net
KatFile.com
UploadRar.com
Download 2
Share-online.biz
Rapidgator.net
KatFile.com
UploadRar.com

Tracklist:

1 - Shake It Out - 3:50
2 - Smash It! - 3:46
3 - This Ain't A Celebration - 3:31
4 - God Only Knows Who I Am - 5:28
5 - Make Your Stand - 5:54
6 - Who's Afraid? - 4:07
7 - Show Some Love...Tear It Down - 3:31
8 - Cyco Style - 4:41
9 - Slam City - 5:36
10 - Till My Last Breath - 4:39
11 - Living The Fight - 4:22
12 - Life...(Can't Live With It, Can't Live Without It) - 
4:35
13 - This World - 5:07

EAC-Log, CUE-Sheed & NFO:

Click to open spoiler
Exact Audio Copy V0.99 prebeta 5 from 4. May 2009

EAC extraction logfile from 22. April 2013, 17:56

Suicidal Tendencies / 13

Used drive : Optiarc DVD RW AD-7240S Adapter: 0 ID: 0

Read mode : Secure
Utilize accurate stream : Yes
Defeat audio cache : Yes
Make use of C2 pointers : No

Read offset correction : 48
Overread into Lead-In and Lead-Out : No
Fill up missing offset samples with silence : Yes
Delete leading and trailing silent blocks : No
Null samples used in CRC calculations : No
Used interface : Native Win32 interface for Win NT & 2000

Used output format : User Defined Encoder
Selected bitrate : 32 kBit/s
Quality : High
Add ID3 tag : No
Command line compressor : C:\FLAC.EXE
Additional command line options : -6 -V %s

TOC of the extracted CD

Track | Start | Length | Start sector | End sector
———————————————————
1 | 0:00.00 | 3:50.42 | 0 | 17291
2 | 3:50.42 | 3:46.15 | 17292 | 34256
3 | 7:36.57 | 3:31.69 | 34257 | 50150
4 | 11:08.51 | 5:28.49 | 50151 | 74799
5 | 16:37.25 | 5:54.27 | 74800 | 101376
6 | 22:31.52 | 4:07.65 | 101377 | 119966
7 | 26:39.42 | 3:31.11 | 119967 | 135802
8 | 30:10.53 | 4:41.01 | 135803 | 156878
9 | 34:51.54 | 5:36.06 | 156879 | 182084
10 | 40:27.60 | 4:39.56 | 182085 | 203065
11 | 45:07.41 | 4:22.16 | 203066 | 222731
12 | 49:29.57 | 4:35.60 | 222732 | 243416
13 | 54:05.42 | 5:07.18 | 243417 | 266459

Range status and errors

Selected range

Filename D:\Suicidal Tendencies – 13.wav

Peak level 99.0 %
Range quality 100.0 %
Copy CRC 4429902A
Copy OK

No errors occurred

AccurateRip summary

Track 1 cannot be verified as accurate (confidence 1) [06189C45], AccurateRip returned [6C771170]
Track 2 cannot be verified as accurate (confidence 1) [75912BFB], AccurateRip returned [18CE4433]
Track 3 cannot be verified as accurate (confidence 1) [B6CBCD0E], AccurateRip returned [A0C391B1]
Track 4 cannot be verified as accurate (confidence 1) [840EDB96], AccurateRip returned [A90C73C8]
Track 5 cannot be verified as accurate (confidence 1) [11B1F472], AccurateRip returned [FE0A79FA]
Track 6 cannot be verified as accurate (confidence 1) [30270718], AccurateRip returned [1309E4BD]
Track 7 cannot be verified as accurate (confidence 1) [A84B665D], AccurateRip returned [E1E8A0F0]
Track 8 cannot be verified as accurate (confidence 1) [2E5614DA], AccurateRip returned [0DBC9DD4]
Track 9 cannot be verified as accurate (confidence 1) [1F21C439], AccurateRip returned [0D7DA68E]
Track 10 cannot be verified as accurate (confidence 1) [BFC9DE36], AccurateRip returned [33903B3E]
Track 11 cannot be verified as accurate (confidence 1) [1D87DCDD], AccurateRip returned [1A2B1824]
Track 12 cannot be verified as accurate (confidence 1) [E3777231], AccurateRip returned [C15C553E]
Track 13 cannot be verified as accurate (confidence 1) [0E1C2605], AccurateRip returned [A784DFD9]

No tracks could be verified as accurate
You may have a different pressing from the one(s) in the database

End of status report

REM GENRE Metal
REM DATE 2013
REM DISCID B60DE00D
REM COMMENT “ExactAudioCopy v0.99pb5”
PERFORMER “Suicidal Tendencies”
TITLE “13”
FILE “Suicidal Tendencies – 13.flac” WAVE
TRACK 01 AUDIO
TITLE “Shake It Out”
PERFORMER “Suicidal Tendencies”
INDEX 01 00:00:00
TRACK 02 AUDIO
TITLE “Smash It!”
PERFORMER “Suicidal Tendencies”
INDEX 00 03:48:44
INDEX 01 03:50:42
TRACK 03 AUDIO
TITLE “This Aint A Celebration”
PERFORMER “Suicidal Tendencies”
INDEX 00 07:36:14
INDEX 01 07:36:57
TRACK 04 AUDIO
TITLE “God Only Knows Who I Am”
PERFORMER “Suicidal Tendencies”
INDEX 00 11:07:10
INDEX 01 11:08:51
TRACK 05 AUDIO
TITLE “Make Your Stand”
PERFORMER “Suicidal Tendencies”
INDEX 00 16:35:35
INDEX 01 16:37:25
TRACK 06 AUDIO
TITLE “Who’s Afraid?”
PERFORMER “Suicidal Tendencies”
INDEX 01 22:31:52
TRACK 07 AUDIO
TITLE “Show Some Love…Tear It Down”
PERFORMER “Suicidal Tendencies”
INDEX 01 26:39:42
TRACK 08 AUDIO
TITLE “Cyco Style”
PERFORMER “Suicidal Tendencies”
INDEX 01 30:10:53
TRACK 09 AUDIO
TITLE “Slam City”
PERFORMER “Suicidal Tendencies”
INDEX 01 34:51:54
TRACK 10 AUDIO
TITLE “Till My Last Breath”
PERFORMER “Suicidal Tendencies”
INDEX 01 40:27:60
TRACK 11 AUDIO
TITLE “Living The Fight”
PERFORMER “Suicidal Tendencies”
INDEX 01 45:07:41
TRACK 12 AUDIO
TITLE “Life…(Can’t Live With It,Can’t Live Without It)”
PERFORMER “Suicidal Tendencies”
INDEX 01 49:29:57
TRACK 13 AUDIO
TITLE “This World”
PERFORMER “Suicidal Tendencies”
INDEX 01 54:05:42


Spread the Download

Leave a Reply

Your email address will not be published. Required fields are marked *

Enter the text from the image below
 

This site uses Akismet to reduce spam. Learn how your comment data is processed.