Social Distortion – Somewhere Between Heaven And Hell




[Total: 0    Average: 0/5]

Artist: Social Distortion
Year: 1992
Genre: Punk
Notes: Discogs
Add. Notes:
Cover incl.: Yes
Encoder: FLAC
Bitrate: ~1000 kBit/s (44.1 kHz/16 Bit/s)
Log & Cue incl.: Yes
Size: 312,13 MB
Password: “slam” (without ” “)


All Downloads/Hosters are compatible

Download 1
Share-online.biz
Rapidgator.net
KatFile.com
UploadRar.com
Download 2
Share-online.biz
Rapidgator.net
KatFile.com
UploadRar.com

Tracklist:

1 - Cold Feelings - 3:31
2 - Bad Luck - 4:26
3 - Making Believe - 4:12
4 - Born To Lose - 4:09
5 - Bye Bye Baby - 3:06
6 - When She Begins - 5:04
7 - 99 To Life - 4:28
8 - King Of Fools - 2:50
9 - Sometimes I Do - 4:01
10 - This Time Darlin' - 4:08
11 - Ghost Town Blues - 4:38

EAC-Log, CUE-Sheed & NFO:

Click to open spoiler
EAC extraction logfile from 20. February 2007, 22:01 for CD
Social Distortion / Somewhere Between Heaven And Hell

Used drive : HL-DT-STCD-ROM GCR-8483B Adapter: 0 ID: 0
Read mode : Secure with NO C2, accurate stream, disable cache
Read offset correction : -24
Overread into Lead-In and Lead-Out : No

Used output format : C:\Program Files\Exact Audio Copy\bin\flac.exe (User Defined Encoder)
320 kBit/s
Additional command line options : -V -8 -T “artist=%a” -T “title=%t” -T “album=%g” -T “date=%y” -T “tracknumber=%n” -T “genre=%m” %s

Other options :
Fill up missing offset samples with silence : Yes
Delete leading and trailing silent blocks : No
Installed external ASPI interface

Track 1
Filename C:\Documents and Settings\Charles\My Documents\My Music\New Rips\Social Distortion-1992-Somewhere Between Heaven And Hell FLAC\01 Cold Feelings.wav

Pre-gap length 0:00:02.00

Peak level 86.7 %
Track quality 99.9 %
Copy CRC 7991DF1A
Copy OK

Track 2
Filename C:\Documents and Settings\Charles\My Documents\My Music\New Rips\Social Distortion-1992-Somewhere Between Heaven And Hell FLAC\02 Bad Luck.wav

Pre-gap length 0:00:01.27

Peak level 87.9 %
Track quality 100.0 %
Copy CRC 086560F4
Copy OK

Track 3
Filename C:\Documents and Settings\Charles\My Documents\My Music\New Rips\Social Distortion-1992-Somewhere Between Heaven And Hell FLAC\03 Making Believe.wav

Pre-gap length 0:00:00.65

Peak level 100.0 %
Track quality 99.9 %
Copy CRC 47E800E2
Copy OK

Track 4
Filename C:\Documents and Settings\Charles\My Documents\My Music\New Rips\Social Distortion-1992-Somewhere Between Heaven And Hell FLAC\04 Born to Lose.wav

Peak level 92.0 %
Track quality 100.0 %
Copy CRC FF3B700A
Copy OK

Track 5
Filename C:\Documents and Settings\Charles\My Documents\My Music\New Rips\Social Distortion-1992-Somewhere Between Heaven And Hell FLAC\05 Bye Bye Baby.wav

Pre-gap length 0:00:00.44

Peak level 88.3 %
Track quality 100.0 %
Copy CRC 3A600873
Copy OK

Track 6
Filename C:\Documents and Settings\Charles\My Documents\My Music\New Rips\Social Distortion-1992-Somewhere Between Heaven And Hell FLAC\06 When She Begins.wav

Pre-gap length 0:00:00.49

Peak level 85.8 %
Track quality 100.0 %
Copy CRC 0DEF7B04
Copy OK

Track 7
Filename C:\Documents and Settings\Charles\My Documents\My Music\New Rips\Social Distortion-1992-Somewhere Between Heaven And Hell FLAC\07 99 to Life.wav

Pre-gap length 0:00:00.72

Peak level 85.3 %
Track quality 99.9 %
Copy CRC 4C43B4D0
Copy OK

Track 8
Filename C:\Documents and Settings\Charles\My Documents\My Music\New Rips\Social Distortion-1992-Somewhere Between Heaven And Hell FLAC\08 King of Fools.wav

Peak level 100.0 %
Track quality 100.0 %
Copy CRC 017F709A
Copy OK

Track 9
Filename C:\Documents and Settings\Charles\My Documents\My Music\New Rips\Social Distortion-1992-Somewhere Between Heaven And Hell FLAC\09 Sometimes I Do.wav

Pre-gap length 0:00:00.57

Peak level 90.4 %
Track quality 99.9 %
Copy CRC DC2364DD
Copy OK

Track 10
Filename C:\Documents and Settings\Charles\My Documents\My Music\New Rips\Social Distortion-1992-Somewhere Between Heaven And Hell FLAC\10 This Time Darlin’.wav

Pre-gap length 0:00:01.14

Peak level 93.4 %
Track quality 99.9 %
Copy CRC C3B8D770
Copy OK

Track 11
Filename C:\Documents and Settings\Charles\My Documents\My Music\New Rips\Social Distortion-1992-Somewhere Between Heaven And Hell FLAC\11 Ghost Town Blues.wav

Pre-gap length 0:00:00.04

Peak level 97.6 %
Track quality 99.9 %
Copy CRC 50E2EDB1
Copy OK

No errors occured

End of status report

REM GENRE Punk
REM DATE 1992
REM DISCID 7C0A740B
REM COMMENT “ExactAudioCopy v0.95b4”
CATALOG 1101000015004
PERFORMER “Social Distortion”
TITLE “Somewhere Between Heaven And Hell”
FILE “01 Cold Feelings.wav” WAVE
TRACK 01 AUDIO
TITLE “Cold Feelings”
PERFORMER “Social Distortion”
INDEX 01 00:00:00
TRACK 02 AUDIO
TITLE “Bad Luck”
PERFORMER “Social Distortion”
INDEX 00 03:30:13
FILE “02 Bad Luck.wav” WAVE
INDEX 01 00:00:00
TRACK 03 AUDIO
TITLE “Making Believe”
PERFORMER “Social Distortion”
INDEX 00 04:25:13
FILE “03 Making Believe.wav” WAVE
INDEX 01 00:00:00
FILE “04 Born to Lose.wav” WAVE
TRACK 04 AUDIO
TITLE “Born to Lose”
PERFORMER “Social Distortion”
INDEX 01 00:00:00
TRACK 05 AUDIO
TITLE “Bye Bye Baby”
PERFORMER “Social Distortion”
INDEX 00 04:08:48
FILE “05 Bye Bye Baby.wav” WAVE
INDEX 01 00:00:00
TRACK 06 AUDIO
TITLE “When She Begins”
PERFORMER “Social Distortion”
INDEX 00 03:05:31
FILE “06 When She Begins.wav” WAVE
INDEX 01 00:00:00
TRACK 07 AUDIO
TITLE “99 to Life”
PERFORMER “Social Distortion”
INDEX 00 05:03:23
FILE “07 99 to Life.wav” WAVE
INDEX 01 00:00:00
FILE “08 King of Fools.wav” WAVE
TRACK 08 AUDIO
TITLE “King of Fools”
PERFORMER “Social Distortion”
INDEX 01 00:00:00
TRACK 09 AUDIO
TITLE “Sometimes I Do”
PERFORMER “Social Distortion”
INDEX 00 02:49:25
FILE “09 Sometimes I Do.wav” WAVE
INDEX 01 00:00:00
TRACK 10 AUDIO
TITLE “This Time Darlin'”
PERFORMER “Social Distortion”
INDEX 00 03:59:71
FILE “10 This Time Darlin’.wav” WAVE
INDEX 01 00:00:00
TRACK 11 AUDIO
TITLE “Ghost Town Blues”
PERFORMER “Social Distortion”
INDEX 00 04:08:51
FILE “11 Ghost Town Blues.wav” WAVE
INDEX 01 00:00:00


Spread the Download

Leave a Reply

Your email address will not be published. Required fields are marked *

Enter the text from the image below
 

This site uses Akismet to reduce spam. Learn how your comment data is processed.