Social Distortion – Live At The Roxy




[Total: 0    Average: 0/5]

Artist: Social Distortion
Year: 1998
Genre: Punk
Notes: Discogs
Add. Notes:
Cover incl.: Yes
Encoder: FLAC
Bitrate: ~900 kBit/s (44.1 kHz/16 Bit/s)
Log & Cue incl.: Yes
Size: 503,72 MB
Password: “slam” (without ” “)


All Downloads/Hosters are compatible

Download 1
Share-online.biz
Rapidgator.net
KatFile.com
UploadRar.com
Download 2
Share-online.biz
Rapidgator.net
KatFile.com
UploadRar.com

Tracklist:

1 - Story Of My Life - 6:00
2 - Bad Luck - 4:27
3 - Under My Thumb - 2:51
4 - Prison Bound - 6:36
5 - Mommy's Little Monster - 4:05
6 - Mass Hysteria - 3:23
7 - The Creeps - 3:03
8 - Another State Of Mind - 2:51
9 - Let It Be Me - 4:29
10 - No Pain, No Gain - 3:24
11 - Cold Feelings - 3:54
12 - Telling Them - 3:58
13 - I Was Wrong - 4:01
14 - 1945 - 3:00
15 - Don't Drag Me Down - 4:56
16 - Ball & Chain - 7:04
17 - Ring Of Fire - 6:51
18 - Untitled - 1:43

EAC-Log, CUE-Sheed & NFO:

Click to open spoiler
Exact Audio Copy V0.99 prebeta 4 from 23. January 2008

EAC extraction logfile from 25. July 2008, 23:09

Social Distortion / Live At The Roxy

Used drive : _NEC DVD_RW ND-3520AW Adapter: 0 ID: 0

Read mode : Secure
Utilize accurate stream : Yes
Defeat audio cache : No
Make use of C2 pointers : No

Read offset correction : 48
Overread into Lead-In and Lead-Out : No
Fill up missing offset samples with silence : Yes
Delete leading and trailing silent blocks : No
Null samples used in CRC calculations : Yes
Used interface : Native Win32 interface for Win NT & 2000
Gap handling : Appended to previous track

Used output format : User Defined Encoder
Selected bitrate : 320 kBit/s
Quality : High
Add ID3 tag : No
Command line compressor : C:\Programme\Exact Audio Copy\Flac\flac.exe
Additional command line options : -V -8 -T “artist=%a” -T “title=%t” -T “album=%g” -T “date=%y” -T “tracknumber=%n” -T “genre=%m” %s

TOC of the extracted CD

Track | Start | Length | Start sector | End sector
———————————————————
1 | 0:00.00 | 6:00.52 | 0 | 27051
2 | 6:00.52 | 4:27.43 | 27052 | 47119
3 | 10:28.20 | 2:51.62 | 47120 | 60006
4 | 13:20.07 | 6:36.10 | 60007 | 89716
5 | 19:56.17 | 4:05.10 | 89717 | 108101
6 | 24:01.27 | 3:23.28 | 108102 | 123354
7 | 27:24.55 | 3:03.67 | 123355 | 137146
8 | 30:28.47 | 2:51.73 | 137147 | 150044
9 | 33:20.45 | 4:29.20 | 150045 | 170239
10 | 37:49.65 | 3:24.00 | 170240 | 185539
11 | 41:13.65 | 3:54.17 | 185540 | 203106
12 | 45:08.07 | 3:58.10 | 203107 | 220966
13 | 49:06.17 | 4:01.43 | 220967 | 239084
14 | 53:07.60 | 3:00.15 | 239085 | 252599
15 | 56:08.00 | 4:56.00 | 252600 | 274799
16 | 61:04.00 | 7:04.32 | 274800 | 306631
17 | 68:08.32 | 8:32.35 | 306632 | 345066
18 | 76:40.67 | 0:00.15 | 345067 | 345081

Track 1

Filename D:\Ripped\Social Distortion (1998) Live At The Roxy\01. Story Of My Life.wav

Pre-gap length 0:00:02.00

Peak level 100.0 %
Track quality 100.0 %
Test CRC C0F7900A
Copy CRC C0F7900A
Copy OK

Track 2

Filename D:\Ripped\Social Distortion (1998) Live At The Roxy\02. Bad Luck.wav

Peak level 100.0 %
Track quality 100.0 %
Test CRC 516A3E9A
Copy CRC 516A3E9A
Copy OK

Track 3

Filename D:\Ripped\Social Distortion (1998) Live At The Roxy\03. Under My Thumb.wav

Peak level 100.0 %
Track quality 100.0 %
Test CRC 7FB265D5
Copy CRC 7FB265D5
Copy OK

Track 4

Filename D:\Ripped\Social Distortion (1998) Live At The Roxy\04. Prison Bound.wav

Peak level 100.0 %
Track quality 99.9 %
Test CRC 9C9C5C3D
Copy CRC 9C9C5C3D
Copy OK

Track 5

Filename D:\Ripped\Social Distortion (1998) Live At The Roxy\05. Mommy’s Little Monster.wav

Peak level 100.0 %
Track quality 100.0 %
Test CRC 12B717AE
Copy CRC 12B717AE
Copy OK

Track 6

Filename D:\Ripped\Social Distortion (1998) Live At The Roxy\06. Mass Hysteria.wav

Peak level 100.0 %
Track quality 100.0 %
Test CRC 1CE5B0FE
Copy CRC 1CE5B0FE
Copy OK

Track 7

Filename D:\Ripped\Social Distortion (1998) Live At The Roxy\07. The Creeps.wav

Peak level 100.0 %
Track quality 100.0 %
Test CRC B8B8CCB5
Copy CRC B8B8CCB5
Copy OK

Track 8

Filename D:\Ripped\Social Distortion (1998) Live At The Roxy\08. Another State of Mind.wav

Peak level 100.0 %
Track quality 100.0 %
Test CRC B5CD6334
Copy CRC B5CD6334
Copy OK

Track 9

Filename D:\Ripped\Social Distortion (1998) Live At The Roxy\09. Let It Be Me.wav

Peak level 100.0 %
Track quality 99.9 %
Test CRC 618D96EA
Copy CRC 618D96EA
Copy OK

Track 10

Filename D:\Ripped\Social Distortion (1998) Live At The Roxy\10. No Pain, No Gain.wav

Peak level 100.0 %
Track quality 100.0 %
Test CRC F9719976
Copy CRC F9719976
Copy OK

Track 11

Filename D:\Ripped\Social Distortion (1998) Live At The Roxy\11. Cold Feelings.wav

Peak level 100.0 %
Track quality 100.0 %
Test CRC 837A778A
Copy CRC 837A778A
Copy OK

Track 12

Filename D:\Ripped\Social Distortion (1998) Live At The Roxy\12. Telling Them.wav

Peak level 100.0 %
Track quality 100.0 %
Test CRC BDB891E9
Copy CRC BDB891E9
Copy OK

Track 13

Filename D:\Ripped\Social Distortion (1998) Live At The Roxy\13. I Was Wrong.wav

Peak level 100.0 %
Track quality 100.0 %
Test CRC 0725ABA1
Copy CRC 0725ABA1
Copy OK

Track 14

Filename D:\Ripped\Social Distortion (1998) Live At The Roxy\14. 1945.wav

Peak level 100.0 %
Track quality 100.0 %
Test CRC A71F31D1
Copy CRC A71F31D1
Copy OK

Track 15

Filename D:\Ripped\Social Distortion (1998) Live At The Roxy\15. Don’t Drag Me Down.wav

Peak level 100.0 %
Track quality 100.0 %
Test CRC 0FD341E1
Copy CRC 0FD341E1
Copy OK

Track 16

Filename D:\Ripped\Social Distortion (1998) Live At The Roxy\16. Ball & Chain.wav

Peak level 100.0 %
Track quality 99.8 %
Test CRC CCD0B146
Copy CRC CCD0B146
Copy OK

Track 17

Filename D:\Ripped\Social Distortion (1998) Live At The Roxy\17. Ring of Fire.wav

Peak level 100.0 %
Track quality 100.0 %
Test CRC 77E8AEC2
Copy CRC 77E8AEC2
Copy OK

No errors occurred

End of status report

REM GENRE “Punk Rock”
REM DATE 1998
REM DISCID EF11F912
REM COMMENT “ExactAudioCopy v0.99pb4”
PERFORMER “Social Distortion”
TITLE “Live At The Roxy”
FILE “Social Distortion (1998) Live At The Roxy\01. Story Of My Life.wav” WAVE
TRACK 01 AUDIO
TITLE “Story Of My Life”
PERFORMER “Social Distortion”
ISRC 000000000000
INDEX 01 00:00:00
FILE “Social Distortion (1998) Live At The Roxy\02. Bad Luck.wav” WAVE
TRACK 02 AUDIO
TITLE “Bad Luck”
PERFORMER “Social Distortion”
ISRC 000000000000
INDEX 01 00:00:00
FILE “Social Distortion (1998) Live At The Roxy\03. Under My Thumb.wav” WAVE
TRACK 03 AUDIO
TITLE “Under My Thumb”
PERFORMER “Social Distortion”
ISRC 000000000000
INDEX 01 00:00:00
FILE “Social Distortion (1998) Live At The Roxy\04. Prison Bound.wav” WAVE
TRACK 04 AUDIO
TITLE “Prison Bound”
PERFORMER “Social Distortion”
ISRC 000000000000
INDEX 01 00:00:00
FILE “Social Distortion (1998) Live At The Roxy\05. Mommy’s Little Monster.wav” WAVE
TRACK 05 AUDIO
TITLE “Mommy’s Little Monster”
PERFORMER “Social Distortion”
ISRC 000000000000
INDEX 01 00:00:00
FILE “Social Distortion (1998) Live At The Roxy\06. Mass Hysteria.wav” WAVE
TRACK 06 AUDIO
TITLE “Mass Hysteria”
PERFORMER “Social Distortion”
ISRC 000000000000
INDEX 01 00:00:00
FILE “Social Distortion (1998) Live At The Roxy\07. The Creeps.wav” WAVE
TRACK 07 AUDIO
TITLE “The Creeps”
PERFORMER “Social Distortion”
ISRC 000000000000
INDEX 01 00:00:00
FILE “Social Distortion (1998) Live At The Roxy\08. Another State of Mind.wav” WAVE
TRACK 08 AUDIO
TITLE “Another State of Mind”
PERFORMER “Social Distortion”
ISRC 000000000000
INDEX 01 00:00:00
FILE “Social Distortion (1998) Live At The Roxy\09. Let It Be Me.wav” WAVE
TRACK 09 AUDIO
TITLE “Let It Be Me”
PERFORMER “Social Distortion”
ISRC 000000000000
INDEX 01 00:00:00
FILE “Social Distortion (1998) Live At The Roxy\10. No Pain, No Gain.wav” WAVE
TRACK 10 AUDIO
TITLE “No Pain, No Gain”
PERFORMER “Social Distortion”
ISRC 000000000000
INDEX 01 00:00:00
FILE “Social Distortion (1998) Live At The Roxy\11. Cold Feelings.wav” WAVE
TRACK 11 AUDIO
TITLE “Cold Feelings”
PERFORMER “Social Distortion”
ISRC 000000000000
INDEX 01 00:00:00
FILE “Social Distortion (1998) Live At The Roxy\12. Telling Them.wav” WAVE
TRACK 12 AUDIO
TITLE “Telling Them”
PERFORMER “Social Distortion”
ISRC 000000000000
INDEX 01 00:00:00
FILE “Social Distortion (1998) Live At The Roxy\13. I Was Wrong.wav” WAVE
TRACK 13 AUDIO
TITLE “I Was Wrong”
PERFORMER “Social Distortion”
ISRC 000000000000
INDEX 01 00:00:00
FILE “Social Distortion (1998) Live At The Roxy\14. 1945.wav” WAVE
TRACK 14 AUDIO
TITLE “1945”
PERFORMER “Social Distortion”
ISRC 000000000000
INDEX 01 00:00:00
FILE “Social Distortion (1998) Live At The Roxy\15. Don’t Drag Me Down.wav” WAVE
TRACK 15 AUDIO
TITLE “Don’t Drag Me Down”
PERFORMER “Social Distortion”
ISRC 000000000000
INDEX 01 00:00:00
FILE “Social Distortion (1998) Live At The Roxy\16. Ball & Chain.wav” WAVE
TRACK 16 AUDIO
TITLE “Ball & Chain”
PERFORMER “Social Distortion”
ISRC 000000000000
INDEX 01 00:00:00
FILE “Social Distortion (1998) Live At The Roxy\17. Ring of Fire.wav” WAVE
TRACK 17 AUDIO
TITLE “Ring of Fire”
PERFORMER “Social Distortion”
ISRC 000000000000
INDEX 01 00:00:00
TRACK 18 AUDIO
TITLE “unnamed”
PERFORMER “Social Distortion”
ISRC 000000000000
INDEX 00 06:52:05
FILE “Social Distortion (1998) Live At The Roxy\18. unnamed.wav” WAVE
INDEX 01 00:00:00


Spread the Download

Leave a Reply

Your email address will not be published. Required fields are marked *

Enter the text from the image below
 

This site uses Akismet to reduce spam. Learn how your comment data is processed.