Ska-P – Incontrolable * En Directo




[Total: 0    Average: 0/5]

Artist: Ska-P
Year: 2003
Genre: Ska
Notes: Discogs
Add. Notes:
Cover incl.: Yes
Encoder: FLAC
Bitrate: ~1000 kBit/s (44.1 kHz/16 Bit/s)
Log & Cue incl.: Yes
Size: 557,59 MB
Password: “slam” (without ” “)


All Downloads/Hosters are compatible

Download 1
Share-online.biz
Rapidgator.net
KatFile.com
UploadRar.com
Download 2
Share-online.biz
Rapidgator.net
KatFile.com
UploadRar.com

Tracklist:

1 - Estampida  
2 - Gato López 
3 - Niño Soldado  
4 - Planeta Eskoria 
5 - Mestizaje  
6 - Intifada 
7 - Vals Del Obrero  
8 - Mis Colegas  
9 - Vergüenza 
10 - Solamente Por Pensa (En Italiano) 
11 - Romero El Madero 
12 - Welcome To Hell  
13 - A La Mierda 
14 - Kasposos 
15 - Paramilitar 
16 - Cannabis

EAC-Log, CUE-Sheed & NFO:

Click to open spoiler
Exact Audio Copy V0.99 prebeta 4 from 23. January 2008

????? EAC ?? ??????????, ??????????? 23. ??? 2009, 12:50

Ska-P / Incontrolable

????????: PLEXTOR DVDR PX-716A Adapter: 2 ID: 1

????? ?????? : ?????????????
????????????? ??????? ?????? : ??
?????????? ???? ????? : ??
????????????? ?????????? C2 : ???

????????? ???????? ??? ?????? : 30
??????????? ?????? ??????? Lead-in ? Lead-out : ???
?????????? ??????????? ??????? ??????? : ??
???????? ?????? ? ??????? ? ?????? ? ????? : ???
??? ??????????? CRC ?????????????? ??????? ?????? : ??
????????? : ?????????? Win32-????????? ??? Win NT/2000

???????? ?????? : ???????????????? ??????????
????????? ??????? : 1024 kBit/s
???????? : ???????
?????????? ID3-???? : ???
??????? ?????? : F:\Program Files\Exact Audio Copy\Flac\flac.exe
?????????????? ????????? : -8 -V -T “ARTIST=%a” -T “TITLE=%t” -T “ALBUM=%g” -T “DATE=%y” -T “TRACKNUMBER=%n” -T “GENRE=%m” -T “COMMENT=EAC FLAC -8” %s

TOC ???????????? CD

???? | ????? | ???????????? | ????????? ?????? | ???????? ??????
———————————————————————
1 | 0:00.00 | 5:32.22 | 0 | 24921
2 | 5:32.22 | 2:44.69 | 24922 | 37290
3 | 8:17.16 | 3:59.64 | 37291 | 55279
4 | 12:17.05 | 4:36.33 | 55280 | 76012
5 | 16:53.38 | 4:33.12 | 76013 | 96499
6 | 21:26.50 | 3:43.12 | 96500 | 113236
7 | 25:09.62 | 5:46.74 | 113237 | 139260
8 | 30:56.61 | 4:16.18 | 139261 | 158478
9 | 35:13.04 | 4:24.56 | 158479 | 178334
10 | 39:37.60 | 3:34.08 | 178335 | 194392
11 | 43:11.68 | 4:52.26 | 194393 | 216318
12 | 48:04.19 | 4:36.52 | 216319 | 237070
13 | 52:40.71 | 4:07.13 | 237071 | 255608
14 | 56:48.09 | 6:43.38 | 255609 | 285871
15 | 63:31.47 | 4:38.45 | 285872 | 306766
16 | 68:10.17 | 5:25.71 | 306767 | 331212

?????????????? ????????? ?????????? ? ????????? ?? ???????

????????? ????????

??? ????? E:\Torentz\SKA-P\2003_Incontrolable\Ska-P – Incontrolable.wav

??????? ??????? 99.4 %
???????? ????????? 100.0 %
CRC ????? 23823150
CRC ????? 23823150
???????????… OK

?????? ?? ?????????

AccurateRip: ??????

???? 1 ?????? ?????????? (??????? 7) [AA026502]
???? 2 ?????? ?????????? (??????? 6) [5BE988D0]
???? 3 ?????? ?????????? (??????? 6) [F1704590]
???? 4 ?????? ?????????? (??????? 6) [3F26231E]
???? 5 ?????? ?????????? (??????? 6) [BD1895F6]
???? 6 ?????? ?????????? (??????? 7) [7BA7ADC4]
???? 7 ?????? ?????????? (??????? 6) [FFCA3BA2]
???? 8 ?????? ?????????? (??????? 6) [F1670934]
???? 9 ?????? ?????????? (??????? 6) [B3CCCEEB]
???? 10 ?????? ?????????? (??????? 6) [523AD321]
???? 11 ?????? ?????????? (??????? 6) [C123976F]
???? 12 ?????? ?????????? (??????? 6) [D3421AB9]
???? 13 ?????? ?????????? (??????? 6) [01C5145C]
???? 14 ?????? ?????????? (??????? 6) [A8D474AD]
???? 15 ?????? ?????????? (??????? 6) [0383DFF4]
???? 16 ?????? ?????????? (??????? 6) [D9B58791]

??? ????? ????????? ?????

????? ??????

REM GENRE Ska
REM DATE 2003
REM DISCID E8114010
REM COMMENT “ExactAudioCopy v0.99pb4”
PERFORMER “Ska-P”
TITLE “Incontrolable”
FILE “Ska-P – Incontrolable.flac” WAVE
TRACK 01 AUDIO
TITLE “Estampida”
PERFORMER “Ska-P”
INDEX 01 00:00:00
TRACK 02 AUDIO
TITLE “Gato López”
PERFORMER “Ska-P”
INDEX 01 05:32:22
TRACK 03 AUDIO
TITLE “Niño Soldado”
PERFORMER “Ska-P”
INDEX 01 08:17:16
TRACK 04 AUDIO
TITLE “Planeta Eskoria”
PERFORMER “Ska-P”
INDEX 01 12:17:05
TRACK 05 AUDIO
TITLE “Mestizaje”
PERFORMER “Ska-P”
INDEX 01 16:53:38
TRACK 06 AUDIO
TITLE “Intifada”
PERFORMER “Ska-P”
INDEX 01 21:26:50
TRACK 07 AUDIO
TITLE “Vals Del Obrero”
PERFORMER “Ska-P”
INDEX 01 25:09:62
TRACK 08 AUDIO
TITLE “Mis Colegas”
PERFORMER “Ska-P”
INDEX 01 30:56:61
TRACK 09 AUDIO
TITLE “Vergüenza”
PERFORMER “Ska-P”
INDEX 01 35:13:04
TRACK 10 AUDIO
TITLE “Solamente Por Pensar (En Italiano)”
PERFORMER “Ska-P”
INDEX 01 39:37:60
TRACK 11 AUDIO
TITLE “Romero El Madero”
PERFORMER “Ska-P”
INDEX 01 43:11:68
TRACK 12 AUDIO
TITLE “Welcome To Hell”
PERFORMER “Ska-P”
INDEX 01 48:04:19
TRACK 13 AUDIO
TITLE “A La Mierda”
PERFORMER “Ska-P”
INDEX 01 52:40:71
TRACK 14 AUDIO
TITLE “Kasposos”
PERFORMER “Ska-P”
INDEX 01 56:48:09
TRACK 15 AUDIO
TITLE “Paramilitar”
PERFORMER “Ska-P”
INDEX 01 63:31:47
TRACK 16 AUDIO
TITLE “Cannabis”
PERFORMER “Ska-P”
INDEX 01 68:10:17


Spread the Download

Leave a Reply

Your email address will not be published. Required fields are marked *

Enter the text from the image below
 

This site uses Akismet to reduce spam. Learn how your comment data is processed.