Pantera – Driven Downunder Tour ’94 – Souvenir Collection




[Total: 0    Average: 0/5]

Artist: Pantera
Year: 1994
Genre: Metal
Notes: Discogs
Add. Notes:
Cover incl.: Yes
Encoder: FLAC
Bitrate: ~1000 kBit/s (44.1 kHz/16 Bit/s)
Log & Cue incl.: Yes
Size: 1008,21 MB
Password: “slam” (without ” “)


All Downloads/Hosters are compatible

Download 1
Share-online.biz
Rapidgator.net
KatFile.com
UploadRar.com
Download 2
Share-online.biz
Rapidgator.net
KatFile.com
UploadRar.com

Tracklist:

Far Beyond Driven
1-1 - Strength Beyond Strength - 3:39
1-2 - Becoming - 3:05
1-3 - 5 Minutes Alone - 5:50
1-4 - I'm Broken - 4:25
1-5 - Good Friends And A Bottle Of Pills - 2:54
1-6 - Hard Lines, Sunken Cheeks - 7:01
1-7 - Slaughtered - 3:57
1-8 - 25 Years - 6:06
1-9 - Shedding Skin - 5:37
1-10 - Use My Third Arm - 4:52
1-11 - Throes Of Rejection - 5:01
1-12 - Planet Caravan - 4:04
Bonus Track
1-13 - The Badge - 3:55

aLive And Hostile E.P.
2-1 - Domination - 6:57
2-2 - Primal Concrete Sledge - 3:52
2-3 - Cowboys From Hell - 4:16
2-4 - Heresy - 4:58
2-5 - Psycho Holiday - 6:05

Walk
3-1 - Walk (Cervical Edit) - 5:12
3-2 - Fucking Hostile (Biomechanical Mix) - 3:57
3-3 - By Demons Be Driven (Biomechanical Mix) - 4:17
3-4 - Walk (Cervical Dub Extended) - 6:41
3-5 - Cowboys From Hell (Live) - 4:16
3-6 - Heresy (Live) - 5:05

EAC-Log, CUE-Sheed & NFO:

Click to open spoiler
Exact Audio Copy V1.0 beta 3 from 29. August 2011

EAC extraction logfile from 24. March 2013, 12:41

Pantera / Far Beyond Driven

Used drive : PLEXTOR DVDR PX-612U Adapter: 1 ID: 0

Read mode : Secure
Utilize accurate stream : Yes
Defeat audio cache : Yes
Make use of C2 pointers : No

Read offset correction : 6
Overread into Lead-In and Lead-Out : No
Fill up missing offset samples with silence : Yes
Delete leading and trailing silent blocks : No
Null samples used in CRC calculations : Yes
Used interface : Installed external ASPI interface

Used output format : User Defined Encoder
Selected bitrate : 1024 kBit/s
Quality : High
Add ID3 tag : No
Command line compressor : C:\Program Files (x86)\Exact Audio Copy 1.0b3\Flac\flac.exe
Additional command line options : -V -8 -T “Date=%year%” -T “Genre=%genre%” %source%

TOC of the extracted CD

Track | Start | Length | Start sector | End sector
———————————————————
1 | 0:00.00 | 3:39.35 | 0 | 16459
2 | 3:39.35 | 3:05.12 | 16460 | 30346
3 | 6:44.47 | 5:47.33 | 30347 | 56404
4 | 12:32.05 | 4:24.60 | 56405 | 76264
5 | 16:56.65 | 2:53.02 | 76265 | 89241
6 | 19:49.67 | 7:00.23 | 89242 | 120764
7 | 26:50.15 | 3:56.67 | 120765 | 138531
8 | 30:47.07 | 6:05.43 | 138532 | 165949
9 | 36:52.50 | 5:36.55 | 165950 | 191204
10 | 42:29.30 | 4:51.67 | 191205 | 213096
11 | 47:21.22 | 5:01.33 | 213097 | 235704
12 | 52:22.55 | 4:02.42 | 235705 | 253896
13 | 56:25.22 | 3:56.43 | 253897 | 271639

Range status and errors

Selected range

Filename D:\Ripped By liveevil\Pantera – Far Beyond Driven.wav

Peak level 99.9 %
Extraction speed 4.5 X
Range quality 100.0 %
Test CRC 1FA22E11
Copy CRC 1FA22E11
Copy OK

No errors occurred

AccurateRip summary

Track 1 accurately ripped (confidence 18) [1592752B] (AR v1)
Track 2 accurately ripped (confidence 18) [03537BF9] (AR v1)
Track 3 accurately ripped (confidence 18) [73CCE839] (AR v1)
Track 4 accurately ripped (confidence 18) [C71F4135] (AR v1)
Track 5 accurately ripped (confidence 18) [AFA50C5E] (AR v1)
Track 6 accurately ripped (confidence 18) [1273F8E2] (AR v1)
Track 7 accurately ripped (confidence 18) [FA29388D] (AR v1)
Track 8 accurately ripped (confidence 19) [03727405] (AR v1)
Track 9 accurately ripped (confidence 18) [F5FEC284] (AR v1)
Track 10 accurately ripped (confidence 18) [B20D2B8A] (AR v1)
Track 11 accurately ripped (confidence 18) [3D1DB49F] (AR v1)
Track 12 accurately ripped (confidence 18) [DF1224D4] (AR v1)
Track 13 accurately ripped (confidence 18) [A0D55A31] (AR v1)

All tracks accurately ripped

End of status report

==== Log checksum D30C225BAA5C646C38F4460544B8C95D2FF07B247C7DD6353CA25509ACA0BBFF ====

Exact Audio Copy V1.0 beta 3 from 29. August 2011

EAC extraction logfile from 24. March 2013, 13:02

Pantera / Alive And Hostile EP

Used drive : PLEXTOR DVDR PX-612U Adapter: 1 ID: 0

Read mode : Secure
Utilize accurate stream : Yes
Defeat audio cache : Yes
Make use of C2 pointers : No

Read offset correction : 6
Overread into Lead-In and Lead-Out : No
Fill up missing offset samples with silence : Yes
Delete leading and trailing silent blocks : No
Null samples used in CRC calculations : Yes
Used interface : Installed external ASPI interface

Used output format : User Defined Encoder
Selected bitrate : 1024 kBit/s
Quality : High
Add ID3 tag : No
Command line compressor : C:\Program Files (x86)\Exact Audio Copy 1.0b3\Flac\flac.exe
Additional command line options : -V -8 -T “Date=%year%” -T “Genre=%genre%” %source%

TOC of the extracted CD

Track | Start | Length | Start sector | End sector
———————————————————
1 | 0:00.00 | 6:27.55 | 0 | 29079
2 | 6:27.55 | 3:52.00 | 29080 | 46479
3 | 10:19.55 | 4:16.20 | 46480 | 65699
4 | 14:36.00 | 4:58.60 | 65700 | 88109
5 | 19:34.60 | 6:05.15 | 88110 | 115499

Range status and errors

Selected range

Filename D:\Ripped By liveevil\Pantera – Alive And Hostile EP.wav

Peak level 100.0 %
Extraction speed 4.1 X
Range quality 100.0 %
Test CRC CBFD0BBA
Copy CRC CBFD0BBA
Copy OK

No errors occurred

AccurateRip summary

Track 1 accurately ripped (confidence 14) [9FDE08C3] (AR v1)
Track 2 accurately ripped (confidence 14) [38C156D3] (AR v1)
Track 3 accurately ripped (confidence 14) [932F4E93] (AR v1)
Track 4 accurately ripped (confidence 14) [1E21AE76] (AR v1)
Track 5 accurately ripped (confidence 14) [43F07A7A] (AR v1)

All tracks accurately ripped

End of status report

==== Log checksum D2D68CDBE48F86C6CDF862399E5E74AF5D171D501B4AD27A826607D29544598B ====

Exact Audio Copy V1.0 beta 3 from 29. August 2011

EAC extraction logfile from 24. March 2013, 13:24

Pantera / Walk EP

Used drive : PLEXTOR DVDR PX-612U Adapter: 1 ID: 0

Read mode : Secure
Utilize accurate stream : Yes
Defeat audio cache : Yes
Make use of C2 pointers : No

Read offset correction : 6
Overread into Lead-In and Lead-Out : No
Fill up missing offset samples with silence : Yes
Delete leading and trailing silent blocks : No
Null samples used in CRC calculations : Yes
Used interface : Installed external ASPI interface

Used output format : User Defined Encoder
Selected bitrate : 1024 kBit/s
Quality : High
Add ID3 tag : No
Command line compressor : C:\Program Files (x86)\Exact Audio Copy 1.0b3\Flac\flac.exe
Additional command line options : -V -8 -T “Date=%year%” -T “Genre=%genre%” %source%

TOC of the extracted CD

Track | Start | Length | Start sector | End sector
———————————————————
1 | 0:00.00 | 5:12.42 | 0 | 23441
2 | 5:12.42 | 3:57.45 | 23442 | 41261
3 | 9:10.12 | 4:17.58 | 41262 | 60594
4 | 13:27.70 | 6:41.17 | 60595 | 90686
5 | 20:09.12 | 4:16.40 | 90687 | 109926
6 | 24:25.52 | 5:05.00 | 109927 | 132801

Range status and errors

Selected range

Filename D:\Ripped By liveevil\Pantera – Walk EP.wav

Peak level 100.0 %
Extraction speed 4.0 X
Range quality 100.0 %
Test CRC 900D79A4
Copy CRC 900D79A4
Copy OK

No errors occurred

AccurateRip summary

Track 1 accurately ripped (confidence 16) [F84CB2C5] (AR v1)
Track 2 accurately ripped (confidence 16) [27325751] (AR v1)
Track 3 accurately ripped (confidence 13) [F4C60BB8] (AR v1)
Track 4 accurately ripped (confidence 15) [9A54C860] (AR v1)
Track 5 accurately ripped (confidence 15) [721809C3] (AR v1)
Track 6 accurately ripped (confidence 15) [17AD2B05] (AR v1)

All tracks accurately ripped

End of status report

==== Log checksum 7D6B4EC641C1A84B22C789664A6AFCE056FB1248024347499C9741BFE0BB04F5 ====

REM GENRE Groove / Thrash Metal
REM DATE 1994
REM DISCID 9F0E250D
REM COMMENT “ExactAudioCopy v1.0b3”
PERFORMER “Pantera”
TITLE “Far Beyond Driven (7567924632)”
FILE “Pantera – Far Beyond Driven (7567924632).flac” WAVE
TRACK 01 AUDIO
TITLE “Strength Beyond Strength”
PERFORMER “Pantera”
INDEX 01 00:00:00
TRACK 02 AUDIO
TITLE “Becoming”
PERFORMER “Pantera”
INDEX 01 03:39:35
TRACK 03 AUDIO
TITLE “5 Minutes Alone”
PERFORMER “Pantera”
INDEX 01 06:44:47
TRACK 04 AUDIO
TITLE “I’m Broken”
PERFORMER “Pantera”
INDEX 01 12:32:05
TRACK 05 AUDIO
TITLE “Good Friends And A Bottle Of Pills”
PERFORMER “Pantera”
INDEX 01 16:56:65
TRACK 06 AUDIO
TITLE “Hard Lines, Sunken Cheeks”
PERFORMER “Pantera”
INDEX 01 19:49:67
TRACK 07 AUDIO
TITLE “Slaughtered”
PERFORMER “Pantera”
INDEX 01 26:50:15
TRACK 08 AUDIO
TITLE “25 Years”
PERFORMER “Pantera”
INDEX 01 30:47:07
TRACK 09 AUDIO
TITLE “Shedding Skin”
PERFORMER “Pantera”
INDEX 01 36:52:50
TRACK 10 AUDIO
TITLE “Use My Third Arm”
PERFORMER “Pantera”
INDEX 01 42:29:30
TRACK 11 AUDIO
TITLE “Throes Of Rejection”
PERFORMER “Pantera”
INDEX 01 47:21:22
TRACK 12 AUDIO
TITLE “Planet Caravan”
PERFORMER “Pantera”
INDEX 01 52:22:55
TRACK 13 AUDIO
TITLE “The Badge (Bonus track)”
PERFORMER “Pantera”
INDEX 01 56:25:22

REM GENRE Groove / Thrash Metal
REM DATE 1994
REM DISCID 45060405
REM COMMENT “ExactAudioCopy v1.0b3”
PERFORMER “Pantera”
TITLE “Alive And Hostile E.P. (7567924632)”
FILE “Pantera – Alive And Hostile E.P. (7567924632).flac” WAVE
TRACK 01 AUDIO
TITLE “Domination”
PERFORMER “Pantera”
INDEX 01 00:00:00
TRACK 02 AUDIO
TITLE “Primal Concrete Sledge”
PERFORMER “Pantera”
INDEX 01 06:27:55
TRACK 03 AUDIO
TITLE “Cowboys From Hell”
PERFORMER “Pantera”
INDEX 01 10:19:55
TRACK 04 AUDIO
TITLE “Heresy”
PERFORMER “Pantera”
INDEX 01 14:36:00
TRACK 05 AUDIO
TITLE “Psycho Holiday”
PERFORMER “Pantera”
INDEX 01 19:34:60

REM GENRE Groove / Thrash Metal
REM DATE 1994
REM DISCID 3E06EA06
REM COMMENT “ExactAudioCopy v1.0b3”
PERFORMER “Pantera”
TITLE “Walk E.P. (7567924632)”
FILE “Pantera – Walk E.P. (7567924632).flac” WAVE
TRACK 01 AUDIO
TITLE “Walk (Cervical edit)”
PERFORMER “Pantera”
INDEX 01 00:00:00
TRACK 02 AUDIO
TITLE “Fucking Hostile (Biomechanical mix)”
PERFORMER “Pantera”
INDEX 00 05:11:20
INDEX 01 05:12:42
TRACK 03 AUDIO
TITLE “By Demons Be Driven (Biomechanical mix)”
PERFORMER “Pantera”
INDEX 01 09:10:12
TRACK 04 AUDIO
TITLE “Walk (Cervical Dub extended)”
PERFORMER “Pantera”
INDEX 00 13:26:30
INDEX 01 13:27:70
TRACK 05 AUDIO
TITLE “Cowboys From Hell (Live)”
PERFORMER “Pantera”
INDEX 01 20:09:12
TRACK 06 AUDIO
TITLE “Heresy (Live)”
PERFORMER “Pantera”
INDEX 01 24:25:52


Spread the Download

Leave a Reply

Your email address will not be published. Required fields are marked *

Enter the text from the image below
 

This site uses Akismet to reduce spam. Learn how your comment data is processed.