Megadeth – Youthanasia (Remastered Japanese Edition)




[Total: 0    Average: 0/5]

Artist: Megadeth
Year: 1994
Genre: Rock
Notes: Discogs
Add. Notes: Remastered Japanese Edition
Cover incl.: Yes
Encoder: FLAC
Bitrate: ~1000 kBit/s (44.1 kHz/16 Bit/s)
Log & Cue incl.: Yes
Size: 620,44 MB
Password: “slam” (without ” “)


All Downloads/Hosters are compatible

Download 1
Share-online.biz
Rapidgator.net
KatFile.com
UploadRar.com
Download 2
Share-online.biz
Rapidgator.net
KatFile.com
UploadRar.com

Tracklist:

1 - Reckoning Day - 4:34
2 - Train Of Consequences - 3:31
3 - Addicted To Chaos - 5:27
4 - A Tout Le Monde - 4:22
5 - Elysian Fields - 4:02
6 - The Killing Road - 3:51
7 - Blood Of Heroes - 3:50
8 - Family Tree - 4:11
9 - Youthanasia - 4:07
10 - I Thought I Knew It All - 3:42
11 - Black Curtains - 3:37
12 - Victory - 4:22
Bonus Tracks
13 - Millennium Of The Blind - 2:15
14 - New World Order (Demo) - 3:45
15 - Absolution (Instrumental) - 3:27
16 - A Tout Le Monde (Demo) - 6:20

EAC-Log, CUE-Sheed & NFO:

Click to open spoiler
Exact Audio Copy V1.0 beta 3 from 29. August 2011

EAC extraction logfile from 24. August 2013, 19:38

Megadeth / Youthanasia [Toshiba, TOCP-95121, SHM-CD, Japan]

Used drive : PIONEER DVD-RW DVR-112D Adapter: 0 ID: 0

Read mode : Secure
Utilize accurate stream : Yes
Defeat audio cache : Yes
Make use of C2 pointers : No

Read offset correction : 48
Overread into Lead-In and Lead-Out : No
Fill up missing offset samples with silence : Yes
Delete leading and trailing silent blocks : No
Null samples used in CRC calculations : Yes
Used interface : Installed external ASPI interface

Used output format : User Defined Encoder
Selected bitrate : 1024 kBit/s
Quality : High
Add ID3 tag : No
Command line compressor : C:\Program Files\Exact Audio Copy\FLAC\FLAC.EXE
Additional command line options : -V -8 -T “Date=%year%” -T “Genre=%genre%” %source%

TOC of the extracted CD

Track | Start | Length | Start sector | End sector
———————————————————
1 | 0:00.00 | 4:34.40 | 0 | 20589
2 | 4:34.40 | 3:31.17 | 20590 | 36431
3 | 8:05.57 | 5:27.45 | 36432 | 61001
4 | 13:33.27 | 4:22.10 | 61002 | 80661
5 | 17:55.37 | 4:02.45 | 80662 | 98856
6 | 21:58.07 | 3:51.15 | 98857 | 116196
7 | 25:49.22 | 3:50.00 | 116197 | 133446
8 | 29:39.22 | 4:11.55 | 133447 | 152326
9 | 33:51.02 | 4:07.68 | 152327 | 170919
10 | 37:58.70 | 3:42.22 | 170920 | 187591
11 | 41:41.17 | 3:37.63 | 187592 | 203929
12 | 45:19.05 | 4:29.70 | 203930 | 224174
13 | 49:49.00 | 2:15.57 | 224175 | 234356
14 | 52:04.57 | 3:45.68 | 234357 | 251299
15 | 55:50.50 | 3:27.20 | 251300 | 266844
16 | 59:17.70 | 6:20.10 | 266845 | 295354

Range status and errors

Selected range

Filename C:\CDRip by Deminbek\Megadeth – Youthanasia [Toshiba, TOCP-95121, SHM-CD, Japan].wav

Peak level 98.8 %
Extraction speed 8.1 X
Range quality 100.0 %
Test CRC 554464AF
Copy CRC 554464AF
Copy OK

No errors occurred

AccurateRip summary

Track 1 cannot be verified as accurate (confidence 42) [34A4D92E], AccurateRip returned [D8C684E7] (AR v2)
Track 2 cannot be verified as accurate (confidence 42) [8F4DB18F], AccurateRip returned [13D88F25] (AR v2)
Track 3 cannot be verified as accurate (confidence 42) [1B9C27EF], AccurateRip returned [BCA75D3B] (AR v2)
Track 4 cannot be verified as accurate (confidence 42) [3890F8C2], AccurateRip returned [6F683B8F] (AR v2)
Track 5 cannot be verified as accurate (confidence 42) [73719D62], AccurateRip returned [846CE9CD] (AR v2)
Track 6 cannot be verified as accurate (confidence 42) [2872B37D], AccurateRip returned [278DD3E4] (AR v2)
Track 7 cannot be verified as accurate (confidence 42) [E6D4CAA9], AccurateRip returned [6CD4D456] (AR v2)
Track 8 cannot be verified as accurate (confidence 41) [C532F711], AccurateRip returned [F80F2C3A] (AR v2)
Track 9 cannot be verified as accurate (confidence 42) [2B5552E0], AccurateRip returned [6049934A] (AR v2)
Track 10 cannot be verified as accurate (confidence 42) [E6A31C49], AccurateRip returned [CA14852E] (AR v2)
Track 11 cannot be verified as accurate (confidence 42) [98B2B2DC], AccurateRip returned [1BAC196E] (AR v2)
Track 12 cannot be verified as accurate (confidence 42) [CC44DA41], AccurateRip returned [4819C2F2] (AR v2)
Track 13 cannot be verified as accurate (confidence 42) [686161EB], AccurateRip returned [D654A549] (AR v2)
Track 14 cannot be verified as accurate (confidence 42) [9C62939C], AccurateRip returned [4FA2B77E] (AR v2)
Track 15 cannot be verified as accurate (confidence 42) [117A059A], AccurateRip returned [CF010FC7] (AR v2)
Track 16 cannot be verified as accurate (confidence 41) [279B2099], AccurateRip returned [EB55F68A] (AR v2)

No tracks could be verified as accurate
You may have a different pressing from the one(s) in the database

End of status report

—- CUETools DB Plugin V2.1.3

[CTDB TOCID: .PHTZLggPcV1p4Ra8b7pjyGgu5M-] found, Submit result: .PHTZLggPcV1p4Ra8b7pjyGgu5M- has been confirmed
[7ac34f3e] (63/85) Accurately ripped
[14e38291] (19/85) No match
[fcdb3ac1] (01/85) No match
[7260d18b] (01/85) No match
[8307116c] (01/85) No match

==== Log checksum 568CDFD5F6D458058E9AB247B0EE6B75539DA5427C9448161A7452711CD9B8DF ====

REM GENRE “Thrash Metal”
REM DATE 2013
REM DISCID D20F6210
REM COMMENT “ExactAudioCopy v1.0b3”
PERFORMER “Megadeth”
TITLE “Youthanasia [Toshiba, TOCP-95121, SHM-CD, Japan]”
FILE “Megadeth – Youthanasia [Toshiba, TOCP-95121, SHM-CD, Japan].flac” WAVE
TRACK 01 AUDIO
TITLE “Reckoning Day”
PERFORMER “Megadeth”
ISRC USCA20400540
INDEX 01 00:00:00
TRACK 02 AUDIO
TITLE “Train Of Consequences”
PERFORMER “Megadeth”
ISRC USCA20400541
INDEX 01 04:34:40
TRACK 03 AUDIO
TITLE “Addicted To Chaos”
PERFORMER “Megadeth”
ISRC USCA20400542
INDEX 01 08:05:57
TRACK 04 AUDIO
TITLE “A Tout Le Monde”
PERFORMER “Megadeth”
ISRC USCA20400543
INDEX 01 13:33:27
TRACK 05 AUDIO
TITLE “Elysian Fields”
PERFORMER “Megadeth”
ISRC USCA20400544
INDEX 01 17:55:37
TRACK 06 AUDIO
TITLE “The Killing Road”
PERFORMER “Megadeth”
ISRC USCA20400545
INDEX 01 21:58:07
TRACK 07 AUDIO
TITLE “Blood Of Heroes”
PERFORMER “Megadeth”
ISRC USCA20400546
INDEX 01 25:49:22
TRACK 08 AUDIO
TITLE “Family Tree”
PERFORMER “Megadeth”
ISRC USCA20400547
INDEX 01 29:39:22
TRACK 09 AUDIO
TITLE “Youthanasia”
PERFORMER “Megadeth”
ISRC USCA20400548
INDEX 01 33:51:02
TRACK 10 AUDIO
TITLE “I Thought I Knew It All”
PERFORMER “Megadeth”
ISRC USCA20400549
INDEX 01 37:58:70
TRACK 11 AUDIO
TITLE “Black Curtains”
PERFORMER “Megadeth”
ISRC USCA20400550
INDEX 01 41:41:17
TRACK 12 AUDIO
TITLE “Victory”
PERFORMER “Megadeth”
ISRC USCA20400551
INDEX 01 45:19:05
TRACK 13 AUDIO
TITLE “Millennium Of The Blind”
PERFORMER “Megadeth”
ISRC USCA20400572
INDEX 00 49:41:05
INDEX 01 49:49:00
TRACK 14 AUDIO
TITLE “New World Order (demo)”
PERFORMER “Megadeth”
ISRC USCA20400573
INDEX 01 52:04:57
TRACK 15 AUDIO
TITLE “Absolution”
PERFORMER “Megadeth”
ISRC USCA20400574
INDEX 01 55:50:50
TRACK 16 AUDIO
TITLE “A Tout Le Monde (demo)”
PERFORMER “Megadeth”
ISRC USCA20400576
INDEX 01 59:17:70


Spread the Download

Leave a Reply

Your email address will not be published. Required fields are marked *

Enter the text from the image below
 

This site uses Akismet to reduce spam. Learn how your comment data is processed.