Lagwagon – Hoss




[Total: 0    Average: 0/5]

Artist: Lagwagon
Year: 1995
Genre: Punk
Notes: Discogs
Add. Notes:
Cover incl.: Yes
Encoder: FLAC
Bitrate: ~1000 kBit/s (44.1 kHz/16 Bit/s)
Log & Cue incl.: Yes
Size: 280,27 MB
Password: “slam” (without ” “)


All Downloads/Hosters are compatible

Download 1
Share-online.biz
Rapidgator.net
KatFile.com
UploadRar.com
Download 2
Share-online.biz
Rapidgator.net
KatFile.com
UploadRar.com

Tracklist:

1 - Kids Don't Like To Share - 2:40
2 - Violins - 3:07
3 - Name Dropping - 2:33
4 - Bombs Away - 3:26
5 - Move The Car - 3:20
6 - Sleep - 1:55
7 - Sick - 2:56
8 - Rifle - 2:52
9 - Weak - 2:36
10 - Black Eyes - 3:13
11 - Bro Dependent - 1:39
12 - Razor Burn - 2:37
13 - Shaving Your Head - 2:42
14 - Ride The Snake - 3:09

EAC-Log, CUE-Sheed & NFO:

Click to open spoiler
Exact Audio Copy V0.99 prebeta 4 from 23. January 2008

EAC extraction logfile from 21. April 2009, 17:15

Lagwagon / Hoss

Used drive : HL-DT-STDVD-RAM GSA-H55N Adapter: 1 ID: 1

Read mode : Secure
Utilize accurate stream : Yes
Defeat audio cache : Yes
Make use of C2 pointers : No

Read offset correction : 102
Overread into Lead-In and Lead-Out : No
Fill up missing offset samples with silence : Yes
Delete leading and trailing silent blocks : No
Null samples used in CRC calculations : Yes
Used interface : Native Win32 interface for Win NT & 2000
Gap handling : Appended to previous track

Used output format : User Defined Encoder
Selected bitrate : 128 kBit/s
Quality : High
Add ID3 tag : No
Command line compressor : C:\Program Files\Exact Audio Copy\Flac\flac.exe
Additional command line options : -V -8 -T “artist=%a” -T “title=%t” -T “album=%g” -T “date=%y” -T “tracknumber=%n” -T “genre=%m” %s

TOC of the extracted CD

Track | Start | Length | Start sector | End sector
———————————————————
1 | 0:00.00 | 2:40.34 | 0 | 12033
2 | 2:40.34 | 3:07.13 | 12034 | 26071
3 | 5:47.47 | 2:34.00 | 26072 | 37621
4 | 8:21.47 | 3:26.60 | 37622 | 53131
5 | 11:48.32 | 3:20.70 | 53132 | 68201
6 | 15:09.27 | 1:55.10 | 68202 | 76836
7 | 17:04.37 | 2:56.53 | 76837 | 90089
8 | 20:01.15 | 2:52.60 | 90090 | 103049
9 | 22:54.00 | 2:36.22 | 103050 | 114771
10 | 25:30.22 | 3:13.23 | 114772 | 129269
11 | 28:43.45 | 1:39.65 | 129270 | 136759
12 | 30:23.35 | 2:37.17 | 136760 | 148551
13 | 33:00.52 | 2:42.35 | 148552 | 160736
14 | 35:43.12 | 3:07.73 | 160737 | 174834

Track 1

Filename C:\Documents and Settings\Bill\Desktop\Lagwagon – 1995 – Hoss (FLAC)\01 – Kids Don’t Like To Share.wav

Pre-gap length 0:00:02.00

Peak level 100.0 %
Track quality 100.0 %
Test CRC B059641A
Copy CRC B059641A
Cannot be verified as accurate (confidence 10) [4EFDA03B], AccurateRip returned [F0FB37B5]
Copy OK

Track 2

Filename C:\Documents and Settings\Bill\Desktop\Lagwagon – 1995 – Hoss (FLAC)\02 – Violins.wav

Peak level 100.0 %
Track quality 100.0 %
Test CRC 31384682
Copy CRC 31384682
Cannot be verified as accurate (confidence 10) [24227F4F], AccurateRip returned [12EB7643]
Copy OK

Track 3

Filename C:\Documents and Settings\Bill\Desktop\Lagwagon – 1995 – Hoss (FLAC)\03 – Name Dropping.wav

Peak level 100.0 %
Track quality 100.0 %
Test CRC 5CC83A8E
Copy CRC 5CC83A8E
Cannot be verified as accurate (confidence 10) [215ABA1D], AccurateRip returned [E72520C9]
Copy OK

Track 4

Filename C:\Documents and Settings\Bill\Desktop\Lagwagon – 1995 – Hoss (FLAC)\04 – Bombs Away.wav

Peak level 100.0 %
Track quality 100.0 %
Test CRC 62BD69B2
Copy CRC 62BD69B2
Cannot be verified as accurate (confidence 9) [6B5E0429], AccurateRip returned [114838D9]
Copy OK

Track 5

Filename C:\Documents and Settings\Bill\Desktop\Lagwagon – 1995 – Hoss (FLAC)\05 – Move The Car.wav

Peak level 100.0 %
Track quality 100.0 %
Test CRC 587A4923
Copy CRC 587A4923
Cannot be verified as accurate (confidence 10) [8E8991CB], AccurateRip returned [88FB9113]
Copy OK

Track 6

Filename C:\Documents and Settings\Bill\Desktop\Lagwagon – 1995 – Hoss (FLAC)\06 – Sleep.wav

Peak level 100.0 %
Track quality 100.0 %
Test CRC 21F820C1
Copy CRC 21F820C1
Cannot be verified as accurate (confidence 10) [50444076], AccurateRip returned [BEB1727F]
Copy OK

Track 7

Filename C:\Documents and Settings\Bill\Desktop\Lagwagon – 1995 – Hoss (FLAC)\07 – Sick.wav

Peak level 100.0 %
Track quality 100.0 %
Test CRC 3D8A5B08
Copy CRC 3D8A5B08
Cannot be verified as accurate (confidence 10) [0294A789], AccurateRip returned [96C10D17]
Copy OK

Track 8

Filename C:\Documents and Settings\Bill\Desktop\Lagwagon – 1995 – Hoss (FLAC)\08 – Rifle.wav

Peak level 100.0 %
Track quality 100.0 %
Test CRC FF379BD7
Copy CRC FF379BD7
Cannot be verified as accurate (confidence 10) [F7BB934A], AccurateRip returned [712FE994]
Copy OK

Track 9

Filename C:\Documents and Settings\Bill\Desktop\Lagwagon – 1995 – Hoss (FLAC)\09 – Weak.wav

Peak level 98.4 %
Track quality 100.0 %
Test CRC E3517044
Copy CRC E3517044
Cannot be verified as accurate (confidence 10) [BE628015], AccurateRip returned [C5AC40B0]
Copy OK

Track 10

Filename C:\Documents and Settings\Bill\Desktop\Lagwagon – 1995 – Hoss (FLAC)\10 – Black Eyes.wav

Peak level 100.0 %
Track quality 100.0 %
Test CRC AED17F7F
Copy CRC AED17F7F
Cannot be verified as accurate (confidence 10) [E833A33A], AccurateRip returned [E1BA2F4F]
Copy OK

Track 11

Filename C:\Documents and Settings\Bill\Desktop\Lagwagon – 1995 – Hoss (FLAC)\11 – Bro Dependent.wav

Peak level 100.0 %
Track quality 100.0 %
Test CRC A7A6820C
Copy CRC A7A6820C
Cannot be verified as accurate (confidence 10) [044D9B7B], AccurateRip returned [2FBB0508]
Copy OK

Track 12

Filename C:\Documents and Settings\Bill\Desktop\Lagwagon – 1995 – Hoss (FLAC)\12 – Razor Burn.wav

Peak level 100.0 %
Track quality 100.0 %
Test CRC A9D4C171
Copy CRC A9D4C171
Cannot be verified as accurate (confidence 10) [59ACF633], AccurateRip returned [43804824]
Copy OK

Track 13

Filename C:\Documents and Settings\Bill\Desktop\Lagwagon – 1995 – Hoss (FLAC)\13 – Shaving Your Head.wav

Peak level 100.0 %
Track quality 100.0 %
Test CRC 43A3439F
Copy CRC 43A3439F
Cannot be verified as accurate (confidence 8) [13FDBEB0], AccurateRip returned [B41F81D1]
Copy OK

Track 14

Filename C:\Documents and Settings\Bill\Desktop\Lagwagon – 1995 – Hoss (FLAC)\14 – Ride The Snake.wav

Peak level 100.0 %
Track quality 99.9 %
Test CRC 2660FF05
Copy CRC 2660FF05
Cannot be verified as accurate (confidence 9) [026B3403], AccurateRip returned [13EFD8B6]
Copy OK

No tracks could be verified as accurate
You may have a different pressing from the one(s) in the database

No errors occurred

End of status report

REM GENRE Punk
REM DATE 1995
REM DISCID A0091B0E
REM COMMENT “ExactAudioCopy v0.99pb4”
PERFORMER “Lagwagon”
TITLE “Hoss”
FILE “01 – Kids Don’t Like To Share.wav” WAVE
TRACK 01 AUDIO
TITLE “Kids Don’t Like To Share”
PERFORMER “Lagwagon”
INDEX 01 00:00:00
FILE “02 – Violins.wav” WAVE
TRACK 02 AUDIO
TITLE “Violins”
PERFORMER “Lagwagon”
INDEX 01 00:00:00
FILE “03 – Name Dropping.wav” WAVE
TRACK 03 AUDIO
TITLE “Name Dropping”
PERFORMER “Lagwagon”
INDEX 01 00:00:00
FILE “04 – Bombs Away.wav” WAVE
TRACK 04 AUDIO
TITLE “Bombs Away”
PERFORMER “Lagwagon”
INDEX 01 00:00:00
FILE “05 – Move The Car.wav” WAVE
TRACK 05 AUDIO
TITLE “Move The Car”
PERFORMER “Lagwagon”
INDEX 01 00:00:00
FILE “06 – Sleep.wav” WAVE
TRACK 06 AUDIO
TITLE “Sleep”
PERFORMER “Lagwagon”
INDEX 01 00:00:00
FILE “07 – Sick.wav” WAVE
TRACK 07 AUDIO
TITLE “Sick”
PERFORMER “Lagwagon”
INDEX 01 00:00:00
FILE “08 – Rifle.wav” WAVE
TRACK 08 AUDIO
TITLE “Rifle”
PERFORMER “Lagwagon”
INDEX 01 00:00:00
FILE “09 – Weak.wav” WAVE
TRACK 09 AUDIO
TITLE “Weak”
PERFORMER “Lagwagon”
INDEX 01 00:00:00
FILE “10 – Black Eyes.wav” WAVE
TRACK 10 AUDIO
TITLE “Black Eyes”
PERFORMER “Lagwagon”
INDEX 01 00:00:00
FILE “11 – Bro Dependent.wav” WAVE
TRACK 11 AUDIO
TITLE “Bro Dependent”
PERFORMER “Lagwagon”
INDEX 01 00:00:00
FILE “12 – Razor Burn.wav” WAVE
TRACK 12 AUDIO
TITLE “Razor Burn”
PERFORMER “Lagwagon”
INDEX 01 00:00:00
FILE “13 – Shaving Your Head.wav” WAVE
TRACK 13 AUDIO
TITLE “Shaving Your Head”
PERFORMER “Lagwagon”
INDEX 01 00:00:00
FILE “14 – Ride The Snake.wav” WAVE
TRACK 14 AUDIO
TITLE “Ride The Snake”
PERFORMER “Lagwagon”
INDEX 01 00:00:00


Spread the Download

Leave a Reply

Your email address will not be published. Required fields are marked *

Enter the text from the image below
 

This site uses Akismet to reduce spam. Learn how your comment data is processed.