Judas Priest – Nostradamus




[Total: 0    Average: 0/5]

Artist: Judas Priest
Year: 2008
Genre: Metal
Notes: Discogs
Add. Notes:
Cover incl.: Yes
Encoder: FLAC
Bitrate: ~800 kBit/s (44.1 kHz/16 Bit/s)
Log & Cue incl.: Yes
Size: 607,36 MB
Password: “slam” (without ” “)


All Downloads/Hosters are compatible

Download 1
Share-online.biz
Rapidgator.net
KatFile.com
UploadRar.com
Download 2
Share-online.biz
Rapidgator.net
KatFile.com
UploadRar.com

Tracklist:

Act 1
1-1 - Dawn Of Creation - 2:32
1-2 - Prophecy - 5:27
1-3 - Awakening - 0:53
1-4 - Revelations - 7:05
1-5 - The Four Horsemen - 1:35
1-6 - War - 5:05
1-7 - Sands Of Time - 2:37
1-8 - Pestilence And Plague - 5:09
1-9 - Death - 7:34
1-10 - Peace - 2:22
1-11 - Conquest - 4:42
1-12 - Lost Love - 4:28
1-13 - Persecution - 6:34
Act 2
2-1 - Solitude - 1:23
2-2 - Exiled - 6:33
2-3 - Alone - 7:50
2-4 - Shadows In The Flame - 1:10
2-5 - Visions - 5:24
2-6 - Hope - 2:10
2-7 - New Beginnings - 4:57
2-8 - Calm Before The Storm - 2:05
2-9 - Nostradamus - 6:43
2-10 - Future Of Mankind - 8:30

EAC-Log, CUE-Sheed & NFO:

Click to open spoiler
REM COMMENT “Declipped, decompressed version”
REM GENRE “Heavy Metal, Symphonic Metal”
REM DATE 2008
REM COMMENT “Released: 17 Jun 2008”
REM LABEL “Epic ‎– 88697315512-S2”
REM FORMAT “2 × CD, Album”
PERFORMER “Judas Priest”
TITLE “Nostradamus”
FILE “01. Dawn of Creation.flac” WAVE
TRACK 01 AUDIO
PERFORMER “Judas Priest”
TITLE “Dawn of Creation”
INDEX 01 00:00:00
FILE “02. Prophecy.flac” WAVE
TRACK 02 AUDIO
PERFORMER “Judas Priest”
TITLE “Prophecy”
INDEX 01 00:00:00
FILE “03. Awakening.flac” WAVE
TRACK 03 AUDIO
PERFORMER “Judas Priest”
TITLE “Awakening”
INDEX 01 00:00:00
FILE “04. Revelations.flac” WAVE
TRACK 04 AUDIO
PERFORMER “Judas Priest”
TITLE “Revelations”
INDEX 01 00:00:00
FILE “05. The Four Horsemen.flac” WAVE
TRACK 05 AUDIO
PERFORMER “Judas Priest”
TITLE “The Four Horsemen”
INDEX 01 00:00:00
FILE “06. War.flac” WAVE
TRACK 06 AUDIO
PERFORMER “Judas Priest”
TITLE “War”
INDEX 01 00:00:00
FILE “07. Sands of Time.flac” WAVE
TRACK 07 AUDIO
PERFORMER “Judas Priest”
TITLE “Sands of Time”
INDEX 01 00:00:00
FILE “08. Pestilence and Plague.flac” WAVE
TRACK 08 AUDIO
PERFORMER “Judas Priest”
TITLE “Pestilence and Plague”
INDEX 01 00:00:00
FILE “09. Death.flac” WAVE
TRACK 09 AUDIO
PERFORMER “Judas Priest”
TITLE “Death”
INDEX 01 00:00:00
FILE “10. Peace.flac” WAVE
TRACK 10 AUDIO
PERFORMER “Judas Priest”
TITLE “Peace”
INDEX 01 00:00:00
FILE “11. Conquest.flac” WAVE
TRACK 11 AUDIO
PERFORMER “Judas Priest”
TITLE “Conquest”
INDEX 01 00:00:00
FILE “12. Lost Love.flac” WAVE
TRACK 12 AUDIO
PERFORMER “Judas Priest”
TITLE “Lost Love”
INDEX 01 00:00:00
FILE “13. Persecution.flac” WAVE
TRACK 13 AUDIO
PERFORMER “Judas Priest”
TITLE “Persecution”
INDEX 01 00:00:00
FILE “14. Solitude.flac” WAVE
TRACK 14 AUDIO
PERFORMER “Judas Priest”
TITLE “Solitude”
INDEX 01 00:00:00
FILE “15. Exiled.flac” WAVE
TRACK 15 AUDIO
PERFORMER “Judas Priest”
TITLE “Exiled”
INDEX 01 00:00:00
FILE “16. Alone.flac” WAVE
TRACK 16 AUDIO
PERFORMER “Judas Priest”
TITLE “Alone”
INDEX 01 00:00:00
FILE “17. Shadows in the Flame.flac” WAVE
TRACK 17 AUDIO
PERFORMER “Judas Priest”
TITLE “Shadows in the Flame”
INDEX 01 00:00:00
FILE “18. Visions.flac” WAVE
TRACK 18 AUDIO
PERFORMER “Judas Priest”
TITLE “Visions”
INDEX 01 00:00:00
FILE “19. Hope.flac” WAVE
TRACK 19 AUDIO
PERFORMER “Judas Priest”
TITLE “Hope”
INDEX 01 00:00:00
FILE “20. New Beginnings.flac” WAVE
TRACK 20 AUDIO
PERFORMER “Judas Priest”
TITLE “New Beginnings”
INDEX 01 00:00:00
FILE “21. Calm Before the Storm.flac” WAVE
TRACK 21 AUDIO
PERFORMER “Judas Priest”
TITLE “Calm Before the Storm”
INDEX 01 00:00:00
FILE “22. Nostradamus.flac” WAVE
TRACK 22 AUDIO
PERFORMER “Judas Priest”
TITLE “Nostradamus”
INDEX 01 00:00:00
FILE “23. Future of Mankind.flac” WAVE
TRACK 23 AUDIO
PERFORMER “Judas Priest”
TITLE “Future of Mankind”
INDEX 01 00:00:00

Spread the Download

Leave a Reply

Your email address will not be published. Required fields are marked *

Enter the text from the image below
 

This site uses Akismet to reduce spam. Learn how your comment data is processed.