Iron Maiden – The Book Of Souls – The Live Chapter




  • [Total: 0    Average: 0/5]

    Artist: Iron Maiden
    Year: 2017
    Genre: Metal
    Notes: Discogs
    Add. Notes:
    Encoder: FLAC
    Bitrate: ~1750 kBit/s (24-Bit) (VBR)
    Size: 1339,9 MB
    Password: “slam” (without ” “)


    Crypted via FileCrypt.cc:

    .

    Crypted via Relink.to:

    Tracklist:

    1-1 - If Eternity Should Fail - 7:46
    1-2 - Speed Of Light - 5:08
    1-3 - Wrathchild - 2:59
    1-4 - Children Of The Damned - 5:14
    1-5 - Death Or Glory - 5:15
    1-6 - The Red And The Black - 13:17
    1-7 - The Trooper - 4:05
    1-8 - Powerslave - 7:31
    2-1 - The Great Unknown - 6:50
    2-2 - The Book Of Souls - 10:49
    2-3 - Fear Of The Dark - 7:34
    2-4 - Iron Maiden - 6:05
    2-5 - The Number Of The Beast - 5:06
    2-6 - Blood Brothers - 7:35
    2-7 - Wasted Years - 5:38
    

    EAC-Log, CUE-Sheed & NFO:

    Click to open spoiler
    foobar2000 1.3.7 / Замер динамического диапазона (DR) 1.1.1
    Дата отчёта: 2018-04-08 12:32:37

    ——————————————————————————–
    Анализ: Iron Maiden / The Book Of Souls: The Live Chapter
    ——————————————————————————–

    DR Пики RMS Продолжительность трека
    ——————————————————————————–
    DR7 -1.50 дБ -9.98 дБ 7:47 01-If Eternity Should Fail (Live At Qudos Bank Arena, Sydney, Australia – Friday 6th May 2016)
    DR7 -1.50 дБ -8.93 дБ 5:09 02-Speed Of Light (Live At Grand Arena, GrandWest, Cape Town, South Africa – Wednesday 18th May 2016)
    DR6 -1.50 дБ -8.49 дБ 3:00 03-Wrathchild (Live At 3 Arena, Dublin, Ireland – Saturday 6th May 2017)
    DR8 -1.50 дБ -11.25 дБ 5:15 04-Children Of The Damned (Live At Bell Center, Montreal, Canada – Friday 1st April 2016)
    DR6 -1.50 дБ -8.60 дБ 5:16 05-Death Or Glory (Live At Wroclaw Stadium, Wroclaw, Poland – Sunday 3rd July 2016)
    DR7 -1.50 дБ -9.25 дБ 13:17 06-The Red And The Black (Live At Ryogoku Kokugikan, Tokyo, Japan – Thursday 21st April 2016)
    DR8 -1.50 дБ -9.97 дБ 4:05 07-The Trooper (Live At Estadio Jorge Magico Gonzalez, San Salvador, El Salvador – Sunday 6th March 2016)
    DR7 -1.50 дБ -9.54 дБ 7:32 08-Powerslave (Live At Plaza Dell’Unita D’Italia, Trieste, Italy – Tuesday 26th July 2016)
    DR6 -1.50 дБ -9.31 дБ 6:50 09-The Great Unknown (Live At MRA Arena, Newcastle, England – Sunday 14th May 2017)
    DR7 -1.50 дБ -9.95 дБ 10:50 10-The Book Of Souls (Live At Download Festival, Donington, England – Sunday 12th June 2016)
    DR7 -1.50 дБ -9.77 дБ 7:34 11-Fear Of The Dark (Live At Arena Castelao, Fortaleza, Brazil – Thursday 24th March 2016)
    DR6 -1.50 дБ -8.74 дБ 6:05 12-Iron Maiden (Live At Estadio Velez Sarsfield, Buenos Aires, Argentina – Tuesday 15th March 2016)
    DR7 -1.50 дБ -9.27 дБ 5:06 13-The Number Of The Beast (Live At Open Air Festival, Wacken, Germany – Thursday 4th August 2016)
    DR7 -1.50 дБ -9.84 дБ 7:35 14-Blood Brothers (Live At Download Festival, Donington, England – Sunday 12th June 2016)
    DR7 -1.50 дБ -9.01 дБ 5:39 15-Wasted Years (Live At HSBC Arena, Rio De Janeiro, Brazil – Thursday 17th March 2016)
    ——————————————————————————–

    Количество треков: 15
    Реальные значения DR: DR7

    Частота: 48000 Гц
    Каналов: 2
    Разрядность: 24
    Битрейт: 1902 кбит/с
    Кодек: FLAC
    ================================================================================

    Общее
    Полное имя : E:\Раздачи\Iron Maiden\The Book of Souls_ The Live Chapter\12. Iron Maiden (Live At Estadio Velez Sarsfield, Buenos Aires, Argentina – Tuesday 15th March 2016).flac
    Формат : FLAC
    Формат/Информация : Free Lossless Audio Codec
    Размер файла : 81,9 Мбайт
    Продолжительность : 6 м. 5 с.
    Режим общего битрейта : Переменный
    Общий поток : 1880 Кбит/сек
    Альбом : The Book Of Souls: The Live Chapter
    Альбом/Исполнитель : Iron Maiden
    Трек : Iron Maiden (Live At Estadio Velez Sarsfield, Buenos Aires, Argentina – Tuesday 15th March 2016)
    Трек/Положение : 12
    Исполнитель : Iron Maiden
    Жанр : Heavy Metal
    Дата записи : 2017
    Программа кодирования : Lavf57.34.103
    Обложка : Yes
    Тип обложки : Cover (front)
    MIME-тип обложки : image/jpeg

    Аудио
    Формат : FLAC
    Формат/Информация : Free Lossless Audio Codec
    Продолжительность : 6 м. 5 с.
    Вид битрейта : Переменный
    Битрейт : 1847 Кбит/сек
    Каналы : 2 канала
    Расположение каналов : Front: L R
    Частота : 48,0 КГц
    Битовая глубина : 24 бит
    Размер потока : 80,4 Мбайт (98%)
    Библиотека кодирования : Lavf57.34.103

    Общее
    Полное имя : E:\Раздачи\Iron Maiden\The Book of Souls_ The Live Chapter\13. The Number Of The Beast (Live At Open Air Festival, Wacken, Germany – Thursday 4th August 2016).flac
    Формат : FLAC
    Формат/Информация : Free Lossless Audio Codec
    Размер файла : 68,8 Мбайт
    Продолжительность : 5 м. 6 с.
    Режим общего битрейта : Переменный
    Общий поток : 1885 Кбит/сек
    Альбом : The Book Of Souls: The Live Chapter
    Альбом/Исполнитель : Iron Maiden
    Трек : The Number Of The Beast (Live At Open Air Festival, Wacken, Germany – Thursday 4th August 2016)
    Трек/Положение : 13
    Исполнитель : Iron Maiden
    Жанр : Heavy Metal
    Дата записи : 2017
    Программа кодирования : Lavf57.34.103
    Обложка : Yes
    Тип обложки : Cover (front)
    MIME-тип обложки : image/jpeg

    Аудио
    Формат : FLAC
    Формат/Информация : Free Lossless Audio Codec
    Продолжительность : 5 м. 6 с.
    Вид битрейта : Переменный
    Битрейт : 1846 Кбит/сек
    Каналы : 2 канала
    Расположение каналов : Front: L R
    Частота : 48,0 КГц
    Битовая глубина : 24 бит
    Размер потока : 67,4 Мбайт (98%)
    Библиотека кодирования : Lavf57.34.103

    Общее
    Полное имя : E:\Раздачи\Iron Maiden\The Book of Souls_ The Live Chapter\14. Blood Brothers (Live At Download Festival, Donington, England – Sunday 12th June 2016).flac
    Формат : FLAC
    Формат/Информация : Free Lossless Audio Codec
    Размер файла : 102 Мбайт
    Продолжительность : 7 м. 35 с.
    Режим общего битрейта : Переменный
    Общий поток : 1876 Кбит/сек
    Альбом : The Book Of Souls: The Live Chapter
    Альбом/Исполнитель : Iron Maiden
    Трек : Blood Brothers (Live At Download Festival, Donington, England – Sunday 12th June 2016)
    Трек/Положение : 14
    Исполнитель : Iron Maiden
    Жанр : Heavy Metal
    Дата записи : 2017
    Программа кодирования : Lavf57.34.103
    Обложка : Yes
    Тип обложки : Cover (front)
    MIME-тип обложки : image/jpeg

    Аудио
    Формат : FLAC
    Формат/Информация : Free Lossless Audio Codec
    Продолжительность : 7 м. 35 с.
    Вид битрейта : Переменный
    Битрейт : 1849 Кбит/сек
    Каналы : 2 канала
    Расположение каналов : Front: L R
    Частота : 48,0 КГц
    Битовая глубина : 24 бит
    Размер потока : 100 Мбайт (99%)
    Библиотека кодирования : Lavf57.34.103

    Общее
    Полное имя : E:\Раздачи\Iron Maiden\The Book of Souls_ The Live Chapter\15. Wasted Years (Live At HSBC Arena, Rio De Janeiro, Brazil – Thursday 17th March 2016).flac
    Формат : FLAC
    Формат/Информация : Free Lossless Audio Codec
    Размер файла : 78,2 Мбайт
    Продолжительность : 5 м. 38 с.
    Режим общего битрейта : Переменный
    Общий поток : 1937 Кбит/сек
    Альбом : The Book Of Souls: The Live Chapter
    Альбом/Исполнитель : Iron Maiden
    Трек : Wasted Years (Live At HSBC Arena, Rio De Janeiro, Brazil – Thursday 17th March 2016)
    Трек/Положение : 15
    Исполнитель : Iron Maiden
    Жанр : Heavy Metal
    Дата записи : 2017
    Программа кодирования : Lavf57.34.103
    Обложка : Yes
    Тип обложки : Cover (front)
    MIME-тип обложки : image/jpeg

    Аудио
    Формат : FLAC
    Формат/Информация : Free Lossless Audio Codec
    Продолжительность : 5 м. 38 с.
    Вид битрейта : Переменный
    Битрейт : 1902 Кбит/сек
    Каналы : 2 канала
    Расположение каналов : Front: L R
    Частота : 48,0 КГц
    Битовая глубина : 24 бит
    Размер потока : 76,7 Мбайт (98%)
    Библиотека кодирования : Lavf57.34.103

    Общее
    Полное имя : E:\Раздачи\Iron Maiden\The Book of Souls_ The Live Chapter\01. If Eternity Should Fail (Live At Qudos Bank Arena, Sydney, Australia – Friday 6th May 2016).flac
    Формат : FLAC
    Формат/Информация : Free Lossless Audio Codec
    Размер файла : 100 Мбайт
    Продолжительность : 7 м. 46 с.
    Режим общего битрейта : Переменный
    Общий поток : 1803 Кбит/сек
    Альбом : The Book Of Souls: The Live Chapter
    Альбом/Исполнитель : Iron Maiden
    Трек : If Eternity Should Fail (Live At Qudos Bank Arena, Sydney, Australia – Friday 6th May 2016)
    Трек/Положение : 01
    Исполнитель : Iron Maiden
    Жанр : Heavy Metal
    Дата записи : 2017
    Программа кодирования : Lavf57.34.103
    Обложка : Yes
    Тип обложки : Cover (front)
    MIME-тип обложки : image/jpeg

    Аудио
    Формат : FLAC
    Формат/Информация : Free Lossless Audio Codec
    Продолжительность : 7 м. 46 с.
    Вид битрейта : Переменный
    Битрейт : 1777 Кбит/сек
    Каналы : 2 канала
    Расположение каналов : Front: L R
    Частота : 48,0 КГц
    Битовая глубина : 24 бит
    Размер потока : 98,9 Мбайт (99%)
    Библиотека кодирования : Lavf57.34.103

    Общее
    Полное имя : E:\Раздачи\Iron Maiden\The Book of Souls_ The Live Chapter\02. Speed Of Light (Live At Grand Arena, GrandWest, Cape Town, South Africa – Wednesday 18th May 2016).flac
    Формат : FLAC
    Формат/Информация : Free Lossless Audio Codec
    Размер файла : 68,9 Мбайт
    Продолжительность : 5 м. 8 с.
    Режим общего битрейта : Переменный
    Общий поток : 1872 Кбит/сек
    Альбом : The Book Of Souls: The Live Chapter
    Альбом/Исполнитель : Iron Maiden
    Трек : Speed Of Light (Live At Grand Arena, GrandWest, Cape Town, South Africa – Wednesday 18th May 2016)
    Трек/Положение : 02
    Исполнитель : Iron Maiden
    Жанр : Heavy Metal
    Дата записи : 2017
    Программа кодирования : Lavf57.34.103
    Обложка : Yes
    Тип обложки : Cover (front)
    MIME-тип обложки : image/jpeg

    Аудио
    Формат : FLAC
    Формат/Информация : Free Lossless Audio Codec
    Продолжительность : 5 м. 8 с.
    Вид битрейта : Переменный
    Битрейт : 1832 Кбит/сек
    Каналы : 2 канала
    Расположение каналов : Front: L R
    Частота : 48,0 КГц
    Битовая глубина : 24 бит
    Размер потока : 67,5 Мбайт (98%)
    Библиотека кодирования : Lavf57.34.103

    Общее
    Полное имя : E:\Раздачи\Iron Maiden\The Book of Souls_ The Live Chapter\03. Wrathchild (Live At 3 Arena, Dublin, Ireland – Saturday 6th May 2017).flac
    Формат : FLAC
    Формат/Информация : Free Lossless Audio Codec
    Размер файла : 41,9 Мбайт
    Продолжительность : 2 м. 59 с.
    Режим общего битрейта : Переменный
    Общий поток : 1953 Кбит/сек
    Альбом : The Book Of Souls: The Live Chapter
    Альбом/Исполнитель : Iron Maiden
    Трек : Wrathchild (Live At 3 Arena, Dublin, Ireland – Saturday 6th May 2017)
    Трек/Положение : 03
    Исполнитель : Iron Maiden
    Жанр : Heavy Metal
    Дата записи : 2017
    Программа кодирования : Lavf57.34.103
    Обложка : Yes
    Тип обложки : Cover (front)
    MIME-тип обложки : image/jpeg

    Аудио
    Формат : FLAC
    Формат/Информация : Free Lossless Audio Codec
    Продолжительность : 2 м. 59 с.
    Вид битрейта : Переменный
    Битрейт : 1885 Кбит/сек
    Каналы : 2 канала
    Расположение каналов : Front: L R
    Частота : 48,0 КГц
    Битовая глубина : 24 бит
    Размер потока : 40,4 Мбайт (97%)
    Библиотека кодирования : Lavf57.34.103

    Общее
    Полное имя : E:\Раздачи\Iron Maiden\The Book of Souls_ The Live Chapter\04. Children Of The Damned (Live At Bell Center, Montreal, Canada – Friday 1st April 2016).flac
    Формат : FLAC
    Формат/Информация : Free Lossless Audio Codec
    Размер файла : 68,0 Мбайт
    Продолжительность : 5 м. 14 с.
    Режим общего битрейта : Переменный
    Общий поток : 1814 Кбит/сек
    Альбом : The Book Of Souls: The Live Chapter
    Альбом/Исполнитель : Iron Maiden
    Трек : Children Of The Damned (Live At Bell Center, Montreal, Canada – Friday 1st April 2016)
    Трек/Положение : 04
    Исполнитель : Iron Maiden
    Жанр : Heavy Metal
    Дата записи : 2017
    Программа кодирования : Lavf57.34.103
    Обложка : Yes
    Тип обложки : Cover (front)
    MIME-тип обложки : image/jpeg

    Аудио
    Формат : FLAC
    Формат/Информация : Free Lossless Audio Codec
    Продолжительность : 5 м. 14 с.
    Вид битрейта : Переменный
    Битрейт : 1775 Кбит/сек
    Каналы : 2 канала
    Расположение каналов : Front: L R
    Частота : 48,0 КГц
    Битовая глубина : 24 бит
    Размер потока : 66,6 Мбайт (98%)
    Библиотека кодирования : Lavf57.34.103

    Общее
    Полное имя : E:\Раздачи\Iron Maiden\The Book of Souls_ The Live Chapter\05. Death Or Glory (Live At Wroclaw Stadium, Wroclaw, Poland – Sunday 3rd July 2016).flac
    Формат : FLAC
    Формат/Информация : Free Lossless Audio Codec
    Размер файла : 70,0 Мбайт
    Продолжительность : 5 м. 15 с.
    Режим общего битрейта : Переменный
    Общий поток : 1859 Кбит/сек
    Альбом : The Book Of Souls: The Live Chapter
    Альбом/Исполнитель : Iron Maiden
    Трек : Death Or Glory (Live At Wroclaw Stadium, Wroclaw, Poland – Sunday 3rd July 2016)
    Трек/Положение : 05
    Исполнитель : Iron Maiden
    Жанр : Heavy Metal
    Дата записи : 2017
    Программа кодирования : Lavf57.34.103
    Обложка : Yes
    Тип обложки : Cover (front)
    MIME-тип обложки : image/jpeg

    Аудио
    Формат : FLAC
    Формат/Информация : Free Lossless Audio Codec
    Продолжительность : 5 м. 15 с.
    Вид битрейта : Переменный
    Битрейт : 1820 Кбит/сек
    Каналы : 2 канала
    Расположение каналов : Front: L R
    Частота : 48,0 КГц
    Битовая глубина : 24 бит
    Размер потока : 68,5 Мбайт (98%)
    Библиотека кодирования : Lavf57.34.103

    Общее
    Полное имя : E:\Раздачи\Iron Maiden\The Book of Souls_ The Live Chapter\06. The Red And The Black (Live At Ryogoku Kokugikan, Tokyo, Japan – Thursday 21st April 2016).flac
    Формат : FLAC
    Формат/Информация : Free Lossless Audio Codec
    Размер файла : 175 Мбайт
    Продолжительность : 13 м. 17 с.
    Режим общего битрейта : Переменный
    Общий поток : 1837 Кбит/сек
    Альбом : The Book Of Souls: The Live Chapter
    Альбом/Исполнитель : Iron Maiden
    Трек : The Red And The Black (Live At Ryogoku Kokugikan, Tokyo, Japan – Thursday 21st April 2016)
    Трек/Положение : 06
    Исполнитель : Iron Maiden
    Жанр : Heavy Metal
    Дата записи : 2017
    Программа кодирования : Lavf57.34.103
    Обложка : Yes
    Тип обложки : Cover (front)
    MIME-тип обложки : image/jpeg

    Аудио
    Формат : FLAC
    Формат/Информация : Free Lossless Audio Codec
    Продолжительность : 13 м. 17 с.
    Вид битрейта : Переменный
    Битрейт : 1822 Кбит/сек
    Каналы : 2 канала
    Расположение каналов : Front: L R
    Частота : 48,0 КГц
    Битовая глубина : 24 бит
    Размер потока : 173 Мбайт (99%)
    Библиотека кодирования : Lavf57.34.103

    Общее
    Полное имя : E:\Раздачи\Iron Maiden\The Book of Souls_ The Live Chapter\07. The Trooper (Live At Estadio Jorge Magico Gonzalez, San Salvador, El Salvador – Sunday 6th March 2016).flac
    Формат : FLAC
    Формат/Информация : Free Lossless Audio Codec
    Размер файла : 54,4 Мбайт
    Продолжительность : 4 м. 5 с.
    Режим общего битрейта : Переменный
    Общий поток : 1860 Кбит/сек
    Альбом : The Book Of Souls: The Live Chapter
    Альбом/Исполнитель : Iron Maiden
    Трек : The Trooper (Live At Estadio Jorge Magico Gonzalez, San Salvador, El Salvador – Sunday 6th March 2016)
    Трек/Положение : 07
    Исполнитель : Iron Maiden
    Жанр : Heavy Metal
    Дата записи : 2017
    Программа кодирования : Lavf57.34.103
    Обложка : Yes
    Тип обложки : Cover (front)
    MIME-тип обложки : image/jpeg

    Аудио
    Формат : FLAC
    Формат/Информация : Free Lossless Audio Codec
    Продолжительность : 4 м. 5 с.
    Вид битрейта : Переменный
    Битрейт : 1810 Кбит/сек
    Каналы : 2 канала
    Расположение каналов : Front: L R
    Частота : 48,0 КГц
    Битовая глубина : 24 бит
    Размер потока : 52,9 Мбайт (97%)
    Библиотека кодирования : Lavf57.34.103

    Общее
    Полное имя : E:\Раздачи\Iron Maiden\The Book of Souls_ The Live Chapter\08. Powerslave (Live At Plaza Dell’Unita D’Italia, Trieste, Italy – Tuesday 26th July 2016).flac
    Формат : FLAC
    Формат/Информация : Free Lossless Audio Codec
    Размер файла : 98,9 Мбайт
    Продолжительность : 7 м. 31 с.
    Режим общего битрейта : Переменный
    Общий поток : 1836 Кбит/сек
    Альбом : The Book Of Souls: The Live Chapter
    Альбом/Исполнитель : Iron Maiden
    Трек : Powerslave (Live At Plaza Dell’Unita D’Italia, Trieste, Italy – Tuesday 26th July 2016)
    Трек/Положение : 08
    Исполнитель : Iron Maiden
    Жанр : Heavy Metal
    Дата записи : 2017
    Программа кодирования : Lavf57.34.103
    Обложка : Yes
    Тип обложки : Cover (front)
    MIME-тип обложки : image/jpeg

    Аудио
    Формат : FLAC
    Формат/Информация : Free Lossless Audio Codec
    Продолжительность : 7 м. 31 с.
    Вид битрейта : Переменный
    Битрейт : 1809 Кбит/сек
    Каналы : 2 канала
    Расположение каналов : Front: L R
    Частота : 48,0 КГц
    Битовая глубина : 24 бит
    Размер потока : 97,4 Мбайт (99%)
    Библиотека кодирования : Lavf57.34.103

    Общее
    Полное имя : E:\Раздачи\Iron Maiden\The Book of Souls_ The Live Chapter\09. The Great Unknown (Live At MRA Arena, Newcastle, England – Sunday 14th May 2017).flac
    Формат : FLAC
    Формат/Информация : Free Lossless Audio Codec
    Размер файла : 89,6 Мбайт
    Продолжительность : 6 м. 50 с.
    Режим общего битрейта : Переменный
    Общий поток : 1832 Кбит/сек
    Альбом : The Book Of Souls: The Live Chapter
    Альбом/Исполнитель : Iron Maiden
    Трек : The Great Unknown (Live At MRA Arena, Newcastle, England – Sunday 14th May 2017)
    Трек/Положение : 09
    Исполнитель : Iron Maiden
    Жанр : Heavy Metal
    Дата записи : 2017
    Программа кодирования : Lavf57.34.103
    Обложка : Yes
    Тип обложки : Cover (front)
    MIME-тип обложки : image/jpeg

    Аудио
    Формат : FLAC
    Формат/Информация : Free Lossless Audio Codec
    Продолжительность : 6 м. 50 с.
    Вид битрейта : Переменный
    Битрейт : 1802 Кбит/сек
    Каналы : 2 канала
    Расположение каналов : Front: L R
    Частота : 48,0 КГц
    Битовая глубина : 24 бит
    Размер потока : 88,2 Мбайт (98%)
    Библиотека кодирования : Lavf57.34.103

    Общее
    Полное имя : E:\Раздачи\Iron Maiden\The Book of Souls_ The Live Chapter\10. The Book Of Souls (Live At Download Festival, Donington, England – Sunday 12th June 2016).flac
    Формат : FLAC
    Формат/Информация : Free Lossless Audio Codec
    Размер файла : 141 Мбайт
    Продолжительность : 10 м. 49 с.
    Режим общего битрейта : Переменный
    Общий поток : 1815 Кбит/сек
    Альбом : The Book Of Souls: The Live Chapter
    Альбом/Исполнитель : Iron Maiden
    Трек : The Book Of Souls (Live At Download Festival, Donington, England – Sunday 12th June 2016)
    Трек/Положение : 10
    Исполнитель : Iron Maiden
    Жанр : Heavy Metal
    Дата записи : 2017
    Программа кодирования : Lavf57.34.103
    Обложка : Yes
    Тип обложки : Cover (front)
    MIME-тип обложки : image/jpeg

    Аудио
    Формат : FLAC
    Формат/Информация : Free Lossless Audio Codec
    Продолжительность : 10 м. 49 с.
    Вид битрейта : Переменный
    Битрейт : 1796 Кбит/сек
    Каналы : 2 канала
    Расположение каналов : Front: L R
    Частота : 48,0 КГц
    Битовая глубина : 24 бит
    Размер потока : 139 Мбайт (99%)
    Библиотека кодирования : Lavf57.34.103

    Общее
    Полное имя : E:\Раздачи\Iron Maiden\The Book of Souls_ The Live Chapter\11. Fear Of The Dark (Live At Arena Castelao, Fortaleza, Brazil – Thursday 24th March 2016).flac
    Формат : FLAC
    Формат/Информация : Free Lossless Audio Codec
    Размер файла : 101 Мбайт
    Продолжительность : 7 м. 34 с.
    Режим общего битрейта : Переменный
    Общий поток : 1859 Кбит/сек
    Альбом : The Book Of Souls: The Live Chapter
    Альбом/Исполнитель : Iron Maiden
    Трек : Fear Of The Dark (Live At Arena Castelao, Fortaleza, Brazil – Thursday 24th March 2016)
    Трек/Положение : 11
    Исполнитель : Iron Maiden
    Жанр : Heavy Metal
    Дата записи : 2017
    Программа кодирования : Lavf57.34.103
    Обложка : Yes
    Тип обложки : Cover (front)
    MIME-тип обложки : image/jpeg

    Аудио
    Формат : FLAC
    Формат/Информация : Free Lossless Audio Codec
    Продолжительность : 7 м. 34 с.
    Вид битрейта : Переменный
    Битрейт : 1833 Кбит/сек
    Каналы : 2 канала
    Расположение каналов : Front: L R
    Частота : 48,0 КГц
    Битовая глубина : 24 бит
    Размер потока : 99,2 Мбайт (99%)
    Библиотека кодирования : Lavf57.34.103

    Author: Chaos

    Leave a Reply

    Your email address will not be published. Required fields are marked *

    This site uses Akismet to reduce spam. Learn how your comment data is processed.