In Extremo – Sängerkrieg




[Total: 0    Average: 0/5]

Artist: In Extremo
Year: 2008
Genre: Rock
Notes: Discogs
Add. Notes:
Cover incl.: Yes
Encoder: ALAC
Bitrate: ~1000 kBit/s (44.1 kHz/16 Bit/s)
Log & Cue incl.: Yes
Size: 502,87 MB
Password: “slam” (without ” “)


All Downloads/Hosters are compatible

Download 1
Share-online.biz
Rapidgator.net
KatFile.com
UploadRar.com
Download 2
Share-online.biz
Rapidgator.net
KatFile.com
UploadRar.com

Tracklist:

1 - Sieben Köche - 2:56
2 - Sængerkrieg - 3:56
3 - Neues Glück - 3:25
4 - En Esta Noche - 4:02
5 - Mein Sehnen - 4:12
6 - Flaschenpost - 4:05
7 - Requiem - 3:58
8 - Frei Zu Sein - 3:35
9 - Zauberspruch - 4:06
10 - In Diesem Licht - 4:45
11 - Tanz Mit Mir - 4:07
12 - An End Has A Start - 3:53
13 - Mein Liebster Feind - 4:11
14 - Auf's Leben - 4:19

EAC-Log, CUE-Sheed & NFO:

Click to open spoiler
Exact Audio Copy V1.0 beta 3 from 29. August 2011

Отчёт EAC об извлечении, выполненном 16. декабря 2014, 21:31

In Extremo / Sangerkrieg

Дисковод: Optiarc DVD RW AD-7200S Adapter: 1 ID: 0

Режим чтения : Достоверность
Использование точного потока : Да
Отключение кэша аудио : Да
Использование указателей C2 : Нет

Коррекция смещения при чтении : 48
Способность читать области Lead-in и Lead-out : Нет
Заполнение пропущенных сэмплов тишиной : Да
Удаление блоков с тишиной в начале и конце : Нет
При вычислениях CRC использовались нулевые сэмплы : Да
Интерфейс : Встроенный Win32-интерфейс для Win NT/2000

Выходной формат : Пользовательский кодировщик
Выбранный битрейт : 896 kBit/s
Качество : Высокий
Добавление ID3-тега : Нет
Утилита сжатия : D:\Program Files\EACPortable\App\EAC\FLAC\flac.exe
Дополнительные параметры : -6 -V -T “ARTIST=%artist%” -T “TITLE=%title%” -T “ALBUM=%albumtitle%” -T “DATE=%year%” -T “TRACKNUMBER=%tracknr%” -T “GENRE=%genre%” -T “COMMENT=%comment%” %hascover%–picture=”%coverfile%”%hascover% %source% -o %dest%

TOC извлечённого CD

Трек | Старт | Длительность | Начальный сектор | Конечный сектор
———————————————————————
1 | 0:00.00 | 2:56.42 | 0 | 13241
2 | 2:56.42 | 3:56.05 | 13242 | 30946
3 | 6:52.47 | 3:25.01 | 30947 | 46322
4 | 10:17.48 | 4:02.48 | 46323 | 64520
5 | 14:20.21 | 4:12.51 | 64521 | 83471
6 | 18:32.72 | 4:05.17 | 83472 | 101863
7 | 22:38.14 | 3:58.35 | 101864 | 119748
8 | 26:36.49 | 3:35.34 | 119749 | 135907
9 | 30:12.08 | 4:06.66 | 135908 | 154423
10 | 34:18.74 | 4:45.21 | 154424 | 175819
11 | 39:04.20 | 4:07.20 | 175820 | 194364
12 | 43:11.40 | 3:53.26 | 194365 | 211865
13 | 47:04.66 | 4:11.02 | 211866 | 230692
14 | 51:15.68 | 4:19.00 | 230693 | 250117

Характеристики диапазона извлечения и сообщения об ошибках

Выбранный диапазон

Имя файла C:\Users\Rohai\Desktop\Всё!\Рипы\In Extremo – Sangerkrieg.wav

Пиковый уровень 99.1 %
Скорость извлечения 3.9 X
Качество диапазона 99.9 %
CRC теста 77DAB22B
CRC копии 77DAB22B
Копирование… OK

Ошибок не произошло

AccurateRip: сводка

Трек 1 : извлечено точно (доверие 66) [8EE597CC] (AR v2)
Трек 2 : извлечено точно (доверие 66) [A2CF6DA2] (AR v2)
Трек 3 : извлечено точно (доверие 66) [59451236] (AR v2)
Трек 4 : извлечено точно (доверие 66) [9BC9628B] (AR v2)
Трек 5 : извлечено точно (доверие 67) [9FA957D3] (AR v2)
Трек 6 : извлечено точно (доверие 66) [F0F825CF] (AR v2)
Трек 7 : извлечено точно (доверие 66) [C9E89A73] (AR v2)
Трек 8 : извлечено точно (доверие 66) [0B59FDF0] (AR v2)
Трек 9 : извлечено точно (доверие 66) [329B41FF] (AR v2)
Трек 10 : извлечено точно (доверие 65) [E46B7B0B] (AR v2)
Трек 11 : извлечено точно (доверие 66) [AE976EB3] (AR v2)
Трек 12 : извлечено точно (доверие 66) [C9463C04] (AR v2)
Трек 13 : извлечено точно (доверие 66) [C4C3AD82] (AR v2)
Трек 14 : извлечено точно (доверие 64) [3B174902] (AR v2)

Все треки извлечены точно

Конец отчёта

REM ACCURATERIPID 001bab40-012a97fd-be0d060e
REM GENRE “Medieval Folk Metal”
REM DATE 2008
REM DISCID BE0D060E
PERFORMER “In Extremo”
TITLE “Sängerkrieg”
CATALOG 0602517655614
REM DISCNUMBER 1
REM TOTALDISCS 1
FILE “01 – Sieben Köche.m4a” WAVE
TRACK 01 AUDIO
TITLE “Sieben Köche”
PERFORMER “In Extremo”
INDEX 01 00:00:00
FILE “02 – Sängerkrieg.m4a” WAVE
TRACK 02 AUDIO
TITLE “Sängerkrieg”
PERFORMER “In Extremo”
INDEX 01 00:00:00
FILE “03 – Neues Glück.m4a” WAVE
TRACK 03 AUDIO
TITLE “Neues Glück”
PERFORMER “In Extremo”
INDEX 01 00:00:00
FILE “04 – En esta noche.m4a” WAVE
TRACK 04 AUDIO
TITLE “En esta noche”
PERFORMER “In Extremo”
INDEX 01 00:00:00
FILE “05 – Mein Sehnen.m4a” WAVE
TRACK 05 AUDIO
TITLE “Mein Sehnen”
PERFORMER “In Extremo”
INDEX 01 00:00:00
FILE “06 – Flaschenpost.m4a” WAVE
TRACK 06 AUDIO
TITLE “Flaschenpost”
PERFORMER “In Extremo”
INDEX 01 00:00:00
FILE “07 – Requiem.m4a” WAVE
TRACK 07 AUDIO
TITLE “Requiem”
PERFORMER “In Extremo”
INDEX 01 00:00:00
TRACK 08 AUDIO
TITLE “Frei zu sein”
PERFORMER “In Extremo”
INDEX 00 03:56:23
FILE “08 – Frei zu sein.m4a” WAVE
INDEX 01 00:00:00
FILE “09 – Zauberspruch.m4a” WAVE
TRACK 09 AUDIO
TITLE “Zauberspruch”
PERFORMER “In Extremo”
INDEX 01 00:00:00
TRACK 10 AUDIO
TITLE “In diesem Licht”
PERFORMER “In Extremo”
INDEX 00 04:05:40
FILE “10 – In diesem Licht.m4a” WAVE
INDEX 01 00:00:00
TRACK 11 AUDIO
TITLE “Tanz mit mir”
PERFORMER “In Extremo”
INDEX 00 04:42:41
FILE “11 – Tanz mit mir.m4a” WAVE
INDEX 01 00:00:00
TRACK 12 AUDIO
TITLE “An End Has a Start”
PERFORMER “In Extremo”
INDEX 00 04:05:69
FILE “12 – An End Has a Start.m4a” WAVE
INDEX 01 00:00:00
FILE “13 – Mein liebster Feind.m4a” WAVE
TRACK 13 AUDIO
TITLE “Mein liebster Feind”
PERFORMER “In Extremo”
INDEX 01 00:00:00
TRACK 14 AUDIO
TITLE “Auf’s Leben”
PERFORMER “In Extremo”
INDEX 00 04:06:08
FILE “14 – Auf’s Leben.m4a” WAVE
INDEX 01 00:00:00


Spread the Download

Leave a Reply

Your email address will not be published. Required fields are marked *

Enter the text from the image below
 

This site uses Akismet to reduce spam. Learn how your comment data is processed.