Heart – Heart (Remastered Japanese Edition)




[Total: 0    Average: 0/5]

Artist: Heart
Year: 1985/2015
Genre: Rock
Notes: Discogs
Add. Notes: Remastered Japanese Edition
Cover incl.: Yes
Encoder: FLAC
Bitrate: ~1000 kBit/s (44.1 kHz/16 Bit/s)
Log & Cue incl.: Yes
Size: 329,54 MB
Password: “slam” (without ” “)


All Downloads/Hosters are compatible

Download 1
Share-online.biz
Rapidgator.net
KatFile.com
UploadRar.com
Download 2
Share-online.biz
Rapidgator.net
KatFile.com
UploadRar.com

Tracklist:

1 - If Looks Could Kill - 3:42
2 - What About Love? - 3:40
3 - Never - 4:05
4 - These Dreams - 4:14
5 - The Wolf - 4:03
6 - All Eyes - 3:54
7 - Nobody Home - 4:07
8 - Nothin' At All - 4:13
9 - What He Don't Know - 3:40
10 - Shell Shock - 3:42

EAC-Log, CUE-Sheed & NFO:

Click to open spoiler
Exact Audio Copy V1.3 from 2. September 2016

EAC extraction logfile from 25. April 2018, 20:58

Heart / Heart (UICY-25531)

Used drive : ASUS DRW-24B1ST Adapter: 1 ID: 1

Read mode : Secure
Utilize accurate stream : Yes
Defeat audio cache : Yes
Make use of C2 pointers : No

Read offset correction : 6
Overread into Lead-In and Lead-Out : No
Fill up missing offset samples with silence : Yes
Delete leading and trailing silent blocks : No
Null samples used in CRC calculations : Yes
Used interface : Native Win32 interface for Win NT & 2000

Used output format : User Defined Encoder
Selected bitrate : 1024 kBit/s
Quality : High
Add ID3 tag : No
Command line compressor : C:\Program Files (x86)\Exact Audio Copy\Flac\flac.exe
Additional command line options : -V -8 -T “Genre=%genre%” -T “Artist=%artist%” -T “Title=%title%” -T “Album=%albumtitle%” -T “Date=%year%” -T “Tracknumber=%tracknr%” -T “Comment=%comment%” %source%

TOC of the extracted CD

Track | Start | Length | Start sector | End sector
———————————————————
1 | 0:00.00 | 3:41.37 | 0 | 16611
2 | 3:41.37 | 3:41.08 | 16612 | 33194
3 | 7:22.45 | 4:06.30 | 33195 | 51674
4 | 11:29.00 | 4:14.72 | 51675 | 70796
5 | 15:43.72 | 4:02.65 | 70797 | 89011
6 | 19:46.62 | 3:55.18 | 89012 | 106654
7 | 23:42.05 | 4:07.45 | 106655 | 125224
8 | 27:49.50 | 4:09.05 | 125225 | 143904
9 | 31:58.55 | 3:41.00 | 143905 | 160479
10 | 35:39.55 | 3:42.27 | 160480 | 177156

Range status and errors

Selected range

Filename E:\Torrent\Ginger Devil\Heart\1985 – Heart (SHM-CD) (UICY-25531)\Heart – Heart (UICY-25531).wav

Peak level 100.0 %
Extraction speed 5.3 X
Range quality 100.0 %
Test CRC E1D52D0D
Copy CRC E1D52D0D
Copy OK

No errors occurred

AccurateRip summary

Track 1 accurately ripped (confidence 3) [B3F3EE10] (AR v2)
Track 2 accurately ripped (confidence 3) [3AB12940] (AR v2)
Track 3 accurately ripped (confidence 3) [3DE5D301] (AR v2)
Track 4 accurately ripped (confidence 3) [A6B9D6A8] (AR v2)
Track 5 accurately ripped (confidence 3) [63E4353B] (AR v2)
Track 6 accurately ripped (confidence 3) [C91F22DB] (AR v2)
Track 7 accurately ripped (confidence 3) [4BFBFB2B] (AR v2)
Track 8 accurately ripped (confidence 3) [FF980889] (AR v2)
Track 9 accurately ripped (confidence 3) [8718A2E3] (AR v2)
Track 10 accurately ripped (confidence 3) [E0F6A829] (AR v2)

All tracks accurately ripped

End of status report

—- CUETools DB Plugin V2.1.6

[CTDB TOCID: nuDFop67IvdyDVK2ZmMnXYBg_ys-] found
Submit result: nuDFop67IvdyDVK2ZmMnXYBg_ys- has been confirmed
Track | CTDB Status
1 | ( 14/233) Accurately ripped
2 | ( 14/233) Accurately ripped
3 | ( 14/233) Accurately ripped
4 | ( 14/233) Accurately ripped
5 | ( 14/233) Accurately ripped
6 | ( 14/233) Accurately ripped
7 | ( 14/233) Accurately ripped
8 | ( 14/233) Accurately ripped
9 | ( 14/233) Accurately ripped
10 | ( 14/233) Accurately ripped

==== Log checksum 27A9885C5EF34E642E4FB1AE168C9E5E05FD4C300B2DA0C0A8A61427F9069790 ====

REM GENRE Rock
REM DATE 1985/2015
REM DISCID 77093A0A
REM COMMENT “ExactAudioCopy v1.3”
CATALOG 4988006867383
PERFORMER “Heart”
TITLE “Heart (UICY-25531)”
REM COMPOSER “Heart”
FILE “Heart – Heart (UICY-25531).flac” WAVE
TRACK 01 AUDIO
TITLE “If Looks Could Kill”
PERFORMER “Heart”
REM COMPOSER “Heart”
ISRC USB328500014
INDEX 01 00:00:00
TRACK 02 AUDIO
TITLE “What About Love”
PERFORMER “Heart”
REM COMPOSER “Heart”
ISRC USB328500012
INDEX 01 03:41:37
TRACK 03 AUDIO
TITLE “Never”
PERFORMER “Heart”
REM COMPOSER “Heart”
ISRC USB328500015
INDEX 01 07:22:45
TRACK 04 AUDIO
TITLE “These Dreams”
PERFORMER “Heart”
REM COMPOSER “Heart”
ISRC USB328500010
INDEX 00 11:26:70
INDEX 01 11:29:00
TRACK 05 AUDIO
TITLE “The Wolf”
PERFORMER “Heart”
REM COMPOSER “Heart”
ISRC USB328500224
INDEX 00 15:43:05
INDEX 01 15:43:72
TRACK 06 AUDIO
TITLE “All Eyes”
PERFORMER “Heart”
REM COMPOSER “Heart”
ISRC USB328500225
INDEX 00 19:46:10
INDEX 01 19:46:62
TRACK 07 AUDIO
TITLE “Nobody Home”
PERFORMER “Heart”
REM COMPOSER “Heart”
ISRC USB328500226
INDEX 00 23:41:10
INDEX 01 23:42:05
TRACK 08 AUDIO
TITLE “Nothin’ At All”
PERFORMER “Heart”
REM COMPOSER “Heart”
ISRC USB328500013
INDEX 00 27:49:00
INDEX 01 27:49:50
TRACK 09 AUDIO
TITLE “What He Don’t Know”
PERFORMER “Heart”
REM COMPOSER “Heart”
ISRC USB328500227
INDEX 00 31:57:60
INDEX 01 31:58:55
TRACK 10 AUDIO
TITLE “Shell Shock”
PERFORMER “Heart”
REM COMPOSER “Heart”
ISRC USB328500228
INDEX 00 35:38:47
INDEX 01 35:39:55


Spread the Download

Leave a Reply

Your email address will not be published. Required fields are marked *

Enter the text from the image below
 

This site uses Akismet to reduce spam. Learn how your comment data is processed.