Hatebreed – For The Lions




[Total: 0    Average: 0/5]

Artist: Hatebreed
Year: 2009
Genre: Hardcore
Notes: Discogs
Add. Notes:
Cover incl.: Yes
Encoder: FLAC
Bitrate: ~1000 kBit/s (44.1 kHz/16 Bit/s)
Log & Cue incl.: Yes
Size: 388,28 MB
Password: “slam” (without ” “)


All Downloads/Hosters are compatible

Download 1
Share-online.biz
Rapidgator.net
KatFile.com
UploadRar.com
Download 2
Share-online.biz
Rapidgator.net
KatFile.com
UploadRar.com

Tracklist:

1 - Ghost Of War - 4:00
2 - Suicidal Maniac - 3:06
3 - Escape - 4:38
4 - Hatebreeders - 2:52
5 - Set It Off - 2:37
6 - Thirsty And Miserable - 2:21
7 - All I Had I Gave - 3:16
8 - Your Mistake - 1:43
9 - I'm In Pain - 4:11
10 - It's The Limit - 1:41
11 - Refuse/Resist - 3:08
12 - Supertouch/Shitfit - 2:22
13 - Evil Minds - 0:58
14 - Shut Me Out - 2:14
15 - Sick Of Talk - 0:39
16 - Life Is Pain - 3:22
17 - Hear Me - 1:55
18 - Boxed In - 2:59

EAC-Log, CUE-Sheed & NFO:

Click to open spoiler
Exact Audio Copy V1.1 from 23. June 2015

EAC extraction logfile from 3. October 2015, 8:14

Hatebreed / For The Lions [Century Media, 9979152, Germany]

Used drive : PIONEER DVD-RW DVR-220L Adapter: 3 ID: 0

Read mode : Secure
Utilize accurate stream : Yes
Defeat audio cache : Yes
Make use of C2 pointers : No

Read offset correction : 6
Overread into Lead-In and Lead-Out : No
Fill up missing offset samples with silence : Yes
Delete leading and trailing silent blocks : No
Null samples used in CRC calculations : Yes
Used interface : Installed external ASPI interface

Used output format : User Defined Encoder
Selected bitrate : 1024 kBit/s
Quality : High
Add ID3 tag : No
Command line compressor : C:\Program Files\Exact Audio Copy\FLAC\FLAC.EXE
Additional command line options : -V -8 -T “Date=%year%” -T “Genre=%genre%” %source%

TOC of the extracted CD

Track | Start | Length | Start sector | End sector
———————————————————
1 | 0:00.00 | 4:00.12 | 0 | 18011
2 | 4:00.12 | 3:06.10 | 18012 | 31971
3 | 7:06.22 | 4:37.69 | 31972 | 52815
4 | 11:44.16 | 2:51.59 | 52816 | 65699
5 | 14:36.00 | 2:37.06 | 65700 | 77480
6 | 17:13.06 | 2:21.28 | 77481 | 88083
7 | 19:34.34 | 3:15.39 | 88084 | 102747
8 | 22:49.73 | 1:43.17 | 102748 | 110489
9 | 24:33.15 | 4:11.00 | 110490 | 129314
10 | 28:44.15 | 1:40.55 | 129315 | 136869
11 | 30:24.70 | 3:07.66 | 136870 | 150960
12 | 33:32.61 | 2:21.60 | 150961 | 161595
13 | 35:54.46 | 0:57.53 | 161596 | 165923
14 | 36:52.24 | 2:14.19 | 165924 | 175992
15 | 39:06.43 | 0:38.38 | 175993 | 178880
16 | 39:45.06 | 3:21.33 | 178881 | 193988
17 | 43:06.39 | 1:54.57 | 193989 | 202595
18 | 45:01.21 | 2:59.25 | 202596 | 216045

Range status and errors

Selected range

Filename C:\CDRip by Deminbek\Hatebreed – For The Lions [Century Media, 9979152, Germany].wav

Peak level 100.0 %
Extraction speed 5.5 X
Range quality 100.0 %
Test CRC 3B768EFB
Copy CRC 3B768EFB
Copy OK

No errors occurred

AccurateRip summary

Track 1 accurately ripped (confidence 7) [EFF6027A] (AR v2)
Track 2 accurately ripped (confidence 7) [A71152ED] (AR v2)
Track 3 accurately ripped (confidence 7) [8D54068D] (AR v2)
Track 4 accurately ripped (confidence 7) [4593CEFE] (AR v2)
Track 5 accurately ripped (confidence 7) [0B7B16BA] (AR v2)
Track 6 accurately ripped (confidence 7) [BF63214D] (AR v2)
Track 7 accurately ripped (confidence 7) [0801008D] (AR v2)
Track 8 accurately ripped (confidence 7) [FA092074] (AR v2)
Track 9 accurately ripped (confidence 7) [4A20708C] (AR v2)
Track 10 accurately ripped (confidence 7) [EEB2A264] (AR v2)
Track 11 accurately ripped (confidence 7) [F90600C7] (AR v2)
Track 12 accurately ripped (confidence 7) [8A71D113] (AR v2)
Track 13 accurately ripped (confidence 7) [8F1A8206] (AR v2)
Track 14 accurately ripped (confidence 7) [3092FB81] (AR v2)
Track 15 accurately ripped (confidence 7) [E1C2B288] (AR v2)
Track 16 accurately ripped (confidence 7) [FDB6DEFA] (AR v2)
Track 17 accurately ripped (confidence 7) [E552BB94] (AR v2)
Track 18 accurately ripped (confidence 7) [9B34091C] (AR v2)

All tracks accurately ripped

End of status report

—- CUETools DB Plugin V2.1.6

[CTDB TOCID: AYkiK2qQtBARNSpfpy.Vt59I3.Y-] found
Submit result: AYkiK2qQtBARNSpfpy.Vt59I3.Y- has been confirmed
Track | CTDB Status
1 | (15/20) Accurately ripped
2 | (15/20) Accurately ripped
3 | (15/20) Accurately ripped
4 | (15/20) Accurately ripped
5 | (15/20) Accurately ripped
6 | (15/20) Accurately ripped
7 | (15/20) Accurately ripped
8 | (20/20) Accurately ripped
9 | (20/20) Accurately ripped
10 | (20/20) Accurately ripped
11 | (20/20) Accurately ripped
12 | (15/20) Accurately ripped
13 | (15/20) Accurately ripped
14 | (20/20) Accurately ripped
15 | (20/20) Accurately ripped
16 | (15/20) Accurately ripped
17 | (15/20) Accurately ripped
18 | (15/20) Accurately ripped

==== Log checksum 544A859FB76C4355BA8DA02DD4777E872913500A3DD0884F08BBF522C7E7FB13 ====

REM GENRE Hardcore
REM DATE 2009
REM DISCID F80B4012
REM COMMENT “ExactAudioCopy v1.1”
PERFORMER “Hatebreed”
TITLE “For The Lions [Century Media, 9979152, Germany]”
FILE “Hatebreed – For The Lions [Century Media, 9979152, Germany].flac” WAVE
TRACK 01 AUDIO
TITLE “Ghosts of War”
PERFORMER “Hatebreed”
ISRC USK010900521
INDEX 01 00:00:00
TRACK 02 AUDIO
TITLE “Suicidal Maniac”
PERFORMER “Hatebreed”
ISRC USK010900522
INDEX 00 03:58:58
INDEX 01 04:00:12
TRACK 03 AUDIO
TITLE “Escape”
PERFORMER “Hatebreed”
ISRC USK010900523
INDEX 00 07:05:16
INDEX 01 07:06:22
TRACK 04 AUDIO
TITLE “Hatebreeders”
PERFORMER “Hatebreed”
ISRC USK010900524
INDEX 00 11:43:68
INDEX 01 11:44:16
TRACK 05 AUDIO
TITLE “Set It Off”
PERFORMER “Hatebreed”
ISRC USK010900525
INDEX 01 14:36:00
TRACK 06 AUDIO
TITLE “Thirsty and Miserable”
PERFORMER “Hatebreed”
ISRC USK010900526
INDEX 00 17:12:51
INDEX 01 17:13:06
TRACK 07 AUDIO
TITLE “All I Had I Gave”
PERFORMER “Hatebreed”
ISRC USK010900527
INDEX 00 19:33:66
INDEX 01 19:34:34
TRACK 08 AUDIO
TITLE “Your Mistake”
PERFORMER “Hatebreed”
ISRC USK010900528
INDEX 00 22:47:62
INDEX 01 22:49:73
TRACK 09 AUDIO
TITLE “I’m in Pain”
PERFORMER “Hatebreed”
ISRC USK010900529
INDEX 01 24:33:15
TRACK 10 AUDIO
TITLE “It’s the Limit”
PERFORMER “Hatebreed”
ISRC USK010900530
INDEX 01 28:44:15
TRACK 11 AUDIO
TITLE “Refuse/Resist”
PERFORMER “Hatebreed”
ISRC USK010900531
INDEX 01 30:24:70
TRACK 12 AUDIO
TITLE “Supertouch/Shitfit”
PERFORMER “Hatebreed”
ISRC USK010900532
INDEX 01 33:32:61
TRACK 13 AUDIO
TITLE “Evil Minds”
PERFORMER “Hatebreed”
ISRC USK010900533
INDEX 00 35:54:01
INDEX 01 35:54:46
TRACK 14 AUDIO
TITLE “Shut Me Out”
PERFORMER “Hatebreed”
ISRC USK010900534
INDEX 01 36:52:24
TRACK 15 AUDIO
TITLE “Sick of Talk”
PERFORMER “Hatebreed”
ISRC USK010900535
INDEX 01 39:06:43
TRACK 16 AUDIO
TITLE “Life Is Pain”
PERFORMER “Hatebreed”
ISRC USK010900536
INDEX 01 39:45:06
TRACK 17 AUDIO
TITLE “Hear Me”
PERFORMER “Hatebreed”
ISRC USK010900537
INDEX 00 43:05:73
INDEX 01 43:06:39
TRACK 18 AUDIO
TITLE “Boxed In”
PERFORMER “Hatebreed”
ISRC USK010900538
INDEX 00 45:00:46
INDEX 01 45:01:21


Spread the Download

Leave a Reply

Your email address will not be published. Required fields are marked *

Enter the text from the image below
 

This site uses Akismet to reduce spam. Learn how your comment data is processed.