Genesis – We Can’t Dance (Japanese Edition)




[Total: 0    Average: 0/5]

Artist: Genesis
Year: 1991
Genre: Rock
Notes: Discogs
Add. Notes: Japanese Edition
Encoder: FLAC
Bitrate: ~800 kBit/s (44.1 kHz/16 Bit/s)
Size: 663 MB
Password: “slam” (without ” “)


http://www.share-online.biz/dl/1F1D8JQPAVIF
http://www.share-online.biz/dl/H9AE8JQPVBJ
http://www.share-online.biz/dl/RF7D8JQP8K
https://rapidgator.net/file/2108ad9110df7822810da8db919187b4
https://rapidgator.net/file/9a5d10b83035d82c47674d9f2cc12c4b
https://rapidgator.net/file/ae43f45fe7634a27a9d0197679fb4fc4
https://ayefiles.com/egz8r8c7agvd/G1991-WeCanDanVJCP-25066-Jap.part1.rar.html
https://ayefiles.com/78r8rn0hcrqo/G1991-WeCanDanVJCP-25066-Jap.part2.rar.html
https://ayefiles.com/ggdozh3m742w/G1991-WeCanDanVJCP-25066-Jap.part3.rar.html

Onlinestatus: Share-online.biz Rapidgator.net AyeFiles.com

Tracklist:

1 - No Son Of Mine - 6:39
2 - Jesus He Knows Me - 4:16
3 - Driving The Last Spike - 10:08
4 - I Can't Dance - 4:01
5 - Never A Time - 3:50
6 - Dreaming While You Sleep - 7:16
7 - Tell Me Why - 4:58
8 - Living Forever - 5:40
9 - Hold On My Heart - 4:38
10 - Way Of The World - 5:39
11 - Since I Lost You - 4:09
12 - Fading Lights - 10:16

EAC-Log, CUE-Sheed & NFO:

Click to open spoiler
Exact Audio Copy V0.99 prebeta 5 from 4. May 2009

EAC extraction logfile from 4. August 2011, 10:48

Genesis / We Can’t Dance [VJCP-25066]

Used drive : ASUS DRW-22B3L Adapter: 0 ID: 1

Read mode : Secure
Utilize accurate stream : Yes
Defeat audio cache : Yes
Make use of C2 pointers : No

Read offset correction : 6
Overread into Lead-In and Lead-Out : No
Fill up missing offset samples with silence : Yes
Delete leading and trailing silent blocks : No
Null samples used in CRC calculations : Yes
Used interface : Native Win32 interface
for Win NT & 2000

Used output format : Internal WAV Routines
Sample format : 44.100 Hz; 16 Bit; Stereo

TOC of the extracted CD

Track | Start | Length | Start sector | End sector
———————————————————
1 | 0:00.37 | 6:39.53 | 37 | 30014
2 | 6:40.15 | 4:16.35 | 30015 | 49249
3 | 10:56.50 | 10:08.50 | 49250 | 94899
4 | 21:05.25 | 4:01.05 | 94900 | 112979
5 | 25:06.30 | 3:50.32 | 112980 | 130261
6 | 28:56.62 | 7:16.60 | 130262 | 163021
7 | 36:13.47 | 4:58.73 | 163022 | 185444
8 | 41:12.45 | 5:41.20 | 185445 | 211039
9 | 46:53.65 | 4:37.52 | 211040 | 231866
10 | 51:31.42 | 5:39.05 | 231867 | 257296
11 | 57:10.47 | 4:09.50 | 257297 | 276021
12 | 61:20.22 | 10:17.60 | 276022 | 322356

Range status and errors

Selected range

Filename D:\Genesis – We Can’t Dance
[VJCP-25066].wav

Peak level 97.3 %
Range quality 100.0 %
Test CRC E5AAFE44
Copy CRC E5AAFE44
Copy OK

No errors occurred

AccurateRip summary

Track 1 accurately ripped (confidence 3) [0BCB668F]
Track 2 accurately ripped (confidence 3) [47085AB2]
Track 3 accurately ripped (confidence 3) [80B70C3F]
Track 4 accurately ripped (confidence 3) [024DA62F]
Track 5 accurately ripped (confidence 3) [F8E89FEB]
Track 6 accurately ripped (confidence 3) [2B2EE060]
Track 7 accurately ripped (confidence 3) [1C7C3F78]
Track 8 accurately ripped (confidence 3) [6BF3DB50]
Track 9 accurately ripped (confidence 3) [6584E8C6]
Track 10 accurately ripped (confidence 3) [F9C33FF9]
Track 11 accurately ripped (confidence 3) [9D23AA8B]
Track 12 accurately ripped (confidence 3) [8EFE2001]

All tracks accurately ripped

End of status report

REM GENRE “Progressive Rock/Pop Rock”
REM DATE 1991
REM DISCID AA10CA0C
REM COMMENT “ExactAudioCopy v0.99pb5”
PERFORMER “Genesis”
TITLE “We Can’t Dance [VJCP-25066]”
FILE “Genesis – We Can’t Dance [VJCP-25066].flac”
WAVE
TRACK 01 AUDIO
TITLE “No Son Of Mine”
PERFORMER “Genesis”
INDEX 00 00:00:00
INDEX 01 00:00:37
TRACK 02 AUDIO
TITLE “Jesus He Knows Me”
PERFORMER “Genesis”
INDEX 00 06:40:08
INDEX 01 06:40:15
TRACK 03 AUDIO
TITLE “Driving The Last Spike”
PERFORMER “Genesis”
INDEX 01 10:56:50
TRACK 04 AUDIO
TITLE “I Can’t Dance”
PERFORMER “Genesis”
INDEX 00 21:04:63
INDEX 01 21:05:25
TRACK 05 AUDIO
TITLE “Never A Time”
PERFORMER “Genesis”
INDEX 01 25:06:30
TRACK 06 AUDIO
TITLE “Dreaming While You Sleep”
PERFORMER “Genesis”
INDEX 01 28:56:62
TRACK 07 AUDIO
TITLE “Tell Me Why”
PERFORMER “Genesis”
INDEX 00 36:12:48
INDEX 01 36:13:47
TRACK 08 AUDIO
TITLE “Living Forever”
PERFORMER “Genesis”
INDEX 00 41:12:08
INDEX 01 41:12:45
TRACK 09 AUDIO
TITLE “Hold On My Heart”
PERFORMER “Genesis”
INDEX 01 46:53:65
TRACK 10 AUDIO
TITLE “Way Of The World”
PERFORMER “Genesis”
INDEX 01 51:31:42
TRACK 11 AUDIO
TITLE “Since I Lost You”
PERFORMER “Genesis”
INDEX 00 57:09:48
INDEX 01 57:10:47
TRACK 12 AUDIO
TITLE “Fading Lights”
PERFORMER “Genesis”
INDEX 00 61:19:73
INDEX 01 61:20:22

Spread the Download

Leave a Reply

Your email address will not be published. Required fields are marked *

Enter the text from the image below
 

This site uses Akismet to reduce spam. Learn how your comment data is processed.