Genesis – Tonight, Tonight, Tonight (Remix Long Version)




  • [Total: 0    Average: 0/5]

    Artist: Genesis
    Year: 1987
    Genre: Rock
    Notes: Discogs
    Add. Notes:
    Encoder: FLAC
    Bitrate: ~800 kBit/s (44.1 kHz/16 Bit/s)
    Size: 169 MB
    Password: “slam” (without ” “)


    http://www.share-online.biz/dl/6LW58JQPC4
    https://rapidgator.net/file/a5d08524d86499681c53ae476e1d3ddb
    https://ayefiles.com/a7fahq8rg491/G1987-TonTonTon-DRAW412.rar.html

    Onlinestatus: Share-online.biz Rapidgator.net AyeFiles.com

    Tracklist:

    1 - Tonight, Tonight, Tonight (Edited 
    Version) - 4:28
    2 - In The Glow Of The Night - 4:28
    3 - Paperlate - 3:19
    4 - Tonight, Tonight, Tonight (12'' 
    Remix) - 11:44
    

    EAC-Log, CUE-Sheed & NFO:

    Click to open spoiler
    Exact Audio Copy V1.0 beta 3 from 29. August 2011

    EAC extraction logfile from 17. March 2013, 1:27

    Genesis / Tonight, Tonight, Tonight (DRAW 412)

    Used drive : HL-DT-STDVDRW GSA-S10N Adapter: 0 ID: 1

    Read mode : Secure
    Utilize accurate stream : Yes
    Defeat audio cache : Yes
    Make use of C2 pointers : No

    Read offset correction : 667
    Overread into Lead-In and Lead-Out : No
    Fill up missing offset samples with silence : Yes
    Delete leading and trailing silent blocks : No
    Null samples used in CRC calculations : Yes
    Used interface : Native Win32 interface for Win NT & 2000

    Used output format : User Defined Encoder
    Selected bitrate : 768 kBit/s
    Quality : High
    Add ID3 tag : No
    Command line compressor : C:\Program Files\Exact Audio Copy 1\Flac\flac.exe
    Additional command line options : -V -8 %source%

    TOC of the extracted CD

    Track | Start | Length | Start sector | End sector
    ———————————————————
    1 | 0:00.50 | 4:31.25 | 50 | 20399
    2 | 4:32.00 | 4:30.37 | 20400 | 40686
    3 | 9:02.37 | 3:21.15 | 40687 | 55776
    4 | 12:23.52 | 11:45.73 | 55777 | 108724

    Range status and errors

    Selected range

    Filename C:\OdW\1987 – Tonight, Tonight, Tonight (DRAW 412)\Genesis – Tonight, Tonight, Tonight (DRAW 412).wav

    Peak level 100.0 %
    Extraction speed 1.9 X
    Range quality 100.0 %
    Test CRC 676D8824
    Copy CRC 676D8824
    Copy OK

    No errors occurred

    AccurateRip summary

    Track 1 accurately ripped (confidence 5) [C06DEA8B] (AR v2)
    Track 2 accurately ripped (confidence 5) [BF2B2E5F] (AR v2)
    Track 3 accurately ripped (confidence 5) [EEE03A39] (AR v2)
    Track 4 accurately ripped (confidence 4) [7A164D6F] (AR v2)

    All tracks accurately ripped

    End of status report

    ==== Log checksum 5BE87787E1A2C817A3490AE4B1B4191E29D1774C7248BAE79DBF2E77159E0B26 ====

    REM GENRE “Progressive Rock”
    REM DATE 1987
    REM DISCID 2C05A904
    REM COMMENT “ExactAudioCopy v1.0b3”
    PERFORMER “Genesis”
    TITLE “Tonight, Tonight, Tonight (DRAW 412)”
    FILE “Genesis – Tonight, Tonight, Tonight (DRAW 412).flac” WAVE
    TRACK 01 AUDIO
    TITLE “Tonight, Tonight, Tonight (Edited version)”
    PERFORMER “Genesis”
    INDEX 00 00:00:00
    INDEX 01 00:00:50
    TRACK 02 AUDIO
    TITLE “In The Glow Of The Night”
    PERFORMER “Genesis”
    INDEX 00 04:27:21
    INDEX 01 04:32:00
    TRACK 03 AUDIO
    TITLE “Paperlate”
    PERFORMER “Genesis”
    INDEX 00 08:58:59
    INDEX 01 09:02:37
    TRACK 04 AUDIO
    TITLE “Tonight, Tonight, Tonight (12′ Remix)”
    PERFORMER “Genesis”
    INDEX 00 12:16:62
    INDEX 01 12:23:52

    Author: Chaos

    Leave a Reply

    Your email address will not be published. Required fields are marked *

    This site uses Akismet to reduce spam. Learn how your comment data is processed.