Genesis – Three Sides Live




  • [Total: 0    Average: 0/5]

    Artist: Genesis
    Year: 1982
    Genre: Rock
    Notes: Discogs
    Add. Notes:
    Encoder: FLAC
    Bitrate: ~800 kBit/s (44.1 kHz/16 Bit/s)
    Size: 548 MB
    Password: “slam” (without ” “)


    http://www.share-online.biz/dl/MMVYKDQP1A
    http://www.share-online.biz/dl/3Z5ZKDQP9UI
    http://www.share-online.biz/dl/080ZKDQPL8
    https://rapidgator.net/file/1034fd0e249290e6e56d6d7e899e66c9
    https://rapidgator.net/file/4098c0135fd59fe2612a0ed6ffc8b0ce
    https://rapidgator.net/file/631f1649beb54aafa5f4071f7b2aaadc
    https://ayefiles.com/alml6el604hy/G1982-ThrSidLiv810_006-2.part1.rar.html
    https://ayefiles.com/vzfkvb39xeev/G1982-ThrSidLiv810_006-2.part2.rar.html
    https://ayefiles.com/a74l0ssjw944/G1982-ThrSidLiv810_006-2.part3.rar.html

    Onlinestatus: Share-online.biz Rapidgator.net AyeFiles.com

    Tracklist:

    1.1 - Turn It On Again - 5:23
    1.2 - Dodo - 7:20
    1.3 - Abacab - 8:43
    1.4 - Behind The Lines - 5:24
    1.5 - Duchess - 6:38
    1.6 - Me & Sarah Jane - 5:52
    1.7 - Follow You, Follow Me - 4:44
    2.1 - Misunderstanding - 4:05
    2.2 - In The Cage (Medly - Cinema 
    Show/Slippermen) - 
    11:52
    2.3 - Afterglow - 5:02
    2.4 - Paperlate - 3:14
    2.5 - You Might Recall - 5:27
    2.6 - Me & Virgil - 6:17
    2.7 - Evidence Of Autumn - 4:57
    2.8 - Open Door - 4:04
    

    EAC-Log, CUE-Sheed & NFO:

    Click to open spoiler
    Exact Audio Copy V1.0 beta 1 from 15. November 2010

    EAC extraction logfile from 31. January 2011, 23:54

    Genesis / Three Sides Live (810 006-2) CD2

    Used drive : TEAC DV-W516GDM Adapter: 0 ID: 1

    Read mode : Secure
    Utilize accurate stream : Yes
    Defeat audio cache : Yes
    Make use of C2 pointers : No

    Read offset correction : 6
    Overread into Lead-In and Lead-Out : No
    Fill up missing offset samples with silence : Yes
    Delete leading and trailing silent blocks : No
    Null samples used in CRC calculations : Yes
    Used interface : Native Win32 interface for Win NT & 2000

    Used output format : User Defined Encoder
    Selected bitrate : 896 kBit/s
    Quality : High
    Add ID3 tag : No
    Command line compressor : C:\Program Files\Exact Audio Copy 1.0\Flac\flac.exe
    Additional command line options : -8 -V %s

    TOC of the extracted CD

    Track | Start | Length | Start sector | End sector
    ———————————————————
    1 | 0:00.33 | 4:05.50 | 33 | 18457
    2 | 4:06.08 | 11:52.37 | 18458 | 71894
    3 | 15:58.45 | 5:03.18 | 71895 | 94637
    4 | 21:01.63 | 3:15.42 | 94638 | 109304
    5 | 24:17.30 | 5:28.05 | 109305 | 133909
    6 | 29:45.35 | 6:18.73 | 133910 | 162332
    7 | 36:04.33 | 4:58.37 | 162333 | 184719
    8 | 41:02.70 | 4:04.65 | 184720 | 203084

    Range status and errors

    Selected range

    Filename C:\Olaf der Weisse\Genesis . 1982 . Three Sides Live (810 006-2)\Genesis – Three Sides Live (810 006-2) CD2.wav

    Peak level 90.0 %
    Extraction speed 0.1 X
    Range quality 99.9 %
    Test CRC AA3E9A5A
    Copy CRC AA3E9A5A
    Copy OK

    No errors occurred

    AccurateRip summary

    Track 1 accurately ripped (confidence 58) [67892223]
    Track 2 accurately ripped (confidence 56) [4E4B5DCF]
    Track 3 accurately ripped (confidence 59) [6AEB6DC5]
    Track 4 accurately ripped (confidence 58) [6D9D1352]
    Track 5 accurately ripped (confidence 58) [FFFCDC19]
    Track 6 accurately ripped (confidence 58) [A5790E83]
    Track 7 accurately ripped (confidence 59) [228C5435]
    Track 8 accurately ripped (confidence 57) [1DFF3C1B]

    All tracks accurately ripped

    End of status report

    Exact Audio Copy V1.0 beta 1 from 15. November 2010

    EAC extraction logfile from 31. January 2011, 23:00

    Genesis / Three Sides Live (810 006-2) CD1

    Used drive : TEAC DV-W516GDM Adapter: 0 ID: 1

    Read mode : Secure
    Utilize accurate stream : Yes
    Defeat audio cache : Yes
    Make use of C2 pointers : No

    Read offset correction : 6
    Overread into Lead-In and Lead-Out : No
    Fill up missing offset samples with silence : Yes
    Delete leading and trailing silent blocks : No
    Null samples used in CRC calculations : Yes
    Used interface : Native Win32 interface for Win NT & 2000

    Used output format : User Defined Encoder
    Selected bitrate : 896 kBit/s
    Quality : High
    Add ID3 tag : No
    Command line compressor : C:\Program Files\Exact Audio Copy 1.0\Flac\flac.exe
    Additional command line options : -8 -V %s

    TOC of the extracted CD

    Track | Start | Length | Start sector | End sector
    ———————————————————
    1 | 0:00.33 | 5:23.57 | 33 | 24314
    2 | 5:24.15 | 7:20.65 | 24315 | 57379
    3 | 12:45.05 | 8:43.08 | 57380 | 96612
    4 | 21:28.13 | 5:24.55 | 96613 | 120967
    5 | 26:52.68 | 6:38.12 | 120968 | 150829
    6 | 33:31.05 | 5:52.15 | 150830 | 177244
    7 | 39:23.20 | 4:45.08 | 177245 | 198627

    Range status and errors

    Selected range

    Filename C:\Olaf der Weisse\Genesis . 1982 . Three Sides Live (810 006-2)\Genesis – Three Sides Live (810 006-2) CD1.wav

    Peak level 100.0 %
    Extraction speed 0.1 X
    Range quality 100.0 %
    Test CRC 9487580E
    Copy CRC 9487580E
    Copy OK

    No errors occurred

    AccurateRip summary

    Track 1 accurately ripped (confidence 73) [DC27AECB]
    Track 2 accurately ripped (confidence 74) [1A611CB2]
    Track 3 accurately ripped (confidence 71) [1B59462B]
    Track 4 accurately ripped (confidence 72) [D3508C9F]
    Track 5 accurately ripped (confidence 73) [9E3DDDAB]
    Track 6 accurately ripped (confidence 74) [6C1973ED]
    Track 7 accurately ripped (confidence 71) [3C1D890A]

    All tracks accurately ripped

    End of status report

    REM GENRE Rock
    REM DATE 1982
    REM DISCID 4F0A5807
    REM COMMENT “ExactAudioCopy v1.0b1”
    PERFORMER “Genesis”
    TITLE “Three Sides Live (810 006-2) CD1”
    FILE “Genesis – Three Sides Live (810 006-2) CD1.flac” WAVE
    TRACK 01 AUDIO
    TITLE “Turn It On Again”
    PERFORMER “Genesis”
    INDEX 00 00:00:00
    INDEX 01 00:00:33
    TRACK 02 AUDIO
    TITLE “Dodo”
    PERFORMER “Genesis”
    INDEX 01 05:24:15
    TRACK 03 AUDIO
    TITLE “Abacab”
    PERFORMER “Genesis”
    INDEX 01 12:45:05
    TRACK 04 AUDIO
    TITLE “Behind The Lines”
    PERFORMER “Genesis”
    INDEX 01 21:28:13
    TRACK 05 AUDIO
    TITLE “Duchess”
    PERFORMER “Genesis”
    INDEX 01 26:52:68
    TRACK 06 AUDIO
    TITLE “Me And Sarah Jane”
    PERFORMER “Genesis”
    INDEX 01 33:31:05
    TRACK 07 AUDIO
    TITLE “Follow You Follow Me”
    PERFORMER “Genesis”
    INDEX 01 39:23:20

    REM GENRE Rock
    REM DATE 1982
    REM DISCID 740A9308
    REM COMMENT “ExactAudioCopy v1.0b1”
    PERFORMER “Genesis”
    TITLE “Three Sides Live (810 006-2) CD2”
    FILE “Genesis – Three Sides Live (810 006-2) CD2.flac” WAVE
    TRACK 01 AUDIO
    TITLE “Misunderstanding (live)”
    PERFORMER “Genesis”
    INDEX 00 00:00:00
    INDEX 01 00:00:33
    TRACK 02 AUDIO
    TITLE “In The Cage (live)”
    PERFORMER “Genesis”
    INDEX 01 04:06:08
    TRACK 03 AUDIO
    TITLE “Afterglow (live)”
    PERFORMER “Genesis”
    INDEX 01 15:58:45
    TRACK 04 AUDIO
    TITLE “Paperlate”
    PERFORMER “Genesis”
    INDEX 00 21:00:58
    INDEX 01 21:01:63
    TRACK 05 AUDIO
    TITLE “You Might Recall”
    PERFORMER “Genesis”
    INDEX 00 24:16:35
    INDEX 01 24:17:30
    TRACK 06 AUDIO
    TITLE “Me And Virgil”
    PERFORMER “Genesis”
    INDEX 00 29:44:35
    INDEX 01 29:45:35
    TRACK 07 AUDIO
    TITLE “Evidence Of Autumn”
    PERFORMER “Genesis”
    INDEX 00 36:03:23
    INDEX 01 36:04:33
    TRACK 08 AUDIO
    TITLE “Open Door”
    PERFORMER “Genesis”
    INDEX 00 41:01:48
    INDEX 01 41:02:70

    Author: Chaos

    Leave a Reply

    Your email address will not be published. Required fields are marked *

    This site uses Akismet to reduce spam. Learn how your comment data is processed.