Genesis – Shipwrecked (4-Track Version)




[Total: 0    Average: 0/5]

Artist: Genesis
Year: 1997
Genre: Rock
Notes: Discogs
Add. Notes:
Cover incl.: No
Encoder: FLAC
Bitrate: ~900 kBit/s (44.1 kHz/16 Bit/s)
Log & Cue incl.: Yes
Size: 97,17 MB
Password: “slam” (without ” “)


All Downloads/Hosters are compatible

Download 1
Share-online.biz
Rapidgator.net
KatFile.com
UploadRar.com
Download 2
Share-online.biz
Rapidgator.net
KatFile.com
UploadRar.com
Download 3
Share-online.biz
Rapidgator.net
KatFile.com
UploadRar.com

Tracklist:

1 - Shipwrecked - 4:26
2 - No Son Of Mine - 3:21
3 - Lovers Leap (From Suppers Ready) - 2:20
4 - Turn It On Again - 2:33

EAC-Log, CUE-Sheed & NFO:

Click to open spoiler
Exact Audio Copy V1.0 beta 3 from 29. August 2011

EAC extraction logfile from 5. March 2014, 1:25

Genesis / Shipwrecked (7243 8 94703 2 1)

Used drive : HL-DT-STDVDRW GSA-S10N Adapter: 0 ID: 1

Read mode : Secure
Utilize accurate stream : Yes
Defeat audio cache : Yes
Make use of C2 pointers : No

Read offset correction : 667
Overread into Lead-In and Lead-Out : No
Fill up missing offset samples with silence : Yes
Delete leading and trailing silent blocks : No
Null samples used in CRC calculations : Yes
Used interface : Native Win32 interface for Win NT & 2000

Used output format : User Defined Encoder
Selected bitrate : 768 kBit/s
Quality : High
Add ID3 tag : No
Command line compressor : C:\Program Files\Exact Audio Copy 1\Flac\flac.exe
Additional command line options : -V -8 %source%

TOC of the extracted CD

Track | Start | Length | Start sector | End sector
———————————————————
1 | 0:00.00 | 4:26.27 | 0 | 19976
2 | 4:26.27 | 3:21.25 | 19977 | 35076
3 | 7:47.52 | 2:20.25 | 35077 | 45601
4 | 10:08.02 | 2:33.70 | 45602 | 57146

Range status and errors

Selected range

Filename C:\OdW\1997 – Shipwrecked (7243 8 94703 2 1)\Genesis – Shipwrecked (7243 8 94703 2 1).wav

Peak level 100.0 %
Extraction speed 1.6 X
Range quality 99.9 %
Test CRC 7DE0872D
Copy CRC 7DE0872D
Copy OK

No errors occurred

AccurateRip summary

Track 1 accurately ripped (confidence 2) [E8960012] (AR v2)
Track 2 accurately ripped (confidence 3) [A0CB4F40] (AR v2)
Track 3 accurately ripped (confidence 3) [6E1CB1B5] (AR v2)
Track 4 accurately ripped (confidence 3) [E1E7D265] (AR v2)

All tracks accurately ripped

End of status report

==== Log checksum 193474DBADB0A097EC20E733FB7211E740FB053302B30A9E1EF5022FDC79E276 ====

REM GENRE “Progressive Rock”
REM DATE 1997
REM DISCID 2C02F904
REM COMMENT “ExactAudioCopy v1.0b3”
PERFORMER “Genesis”
TITLE “Shipwrecked (7243 8 94703 2 1)”
FILE “Genesis – Shipwrecked (7243 8 94703 2 1).flac” WAVE
TRACK 01 AUDIO
TITLE “Shipwrecked”
PERFORMER “Genesis”
INDEX 01 00:00:00
TRACK 02 AUDIO
TITLE “No Son Of Mine [live at Cape Canaveral]”
PERFORMER “Genesis”
INDEX 00 04:23:52
INDEX 01 04:26:27
TRACK 03 AUDIO
TITLE “Lovers Leap (from Supper’s Ready) [live at Cape Canaveral]”
PERFORMER “Genesis”
INDEX 01 07:47:52
TRACK 04 AUDIO
TITLE “Turn It On Again [live at Cape Canaveral]”
PERFORMER “Genesis”
INDEX 01 10:08:02


Spread the Download

Leave a Reply

Your email address will not be published. Required fields are marked *

Enter the text from the image below
 

This site uses Akismet to reduce spam. Learn how your comment data is processed.