Genesis – Selling England by the Pound (Reissue)




[Total: 0    Average: 0/5]

Artist: Genesis
Year: 1973/1987
Genre: Rock
Notes: Discogs
Add. Notes:
Cover incl.: Yes
Encoder: FLAC
Bitrate: ~800 kBit/s (44.1 kHz/16 Bit/s)
Log & Cue incl.: Yes
Size: 331,41 MB
Password: “slam” (without ” “)


All Downloads/Hosters are compatible

Download 1
Share-online.biz
Rapidgator.net
KatFile.com
UploadRar.com
Download 2
Share-online.biz
Rapidgator.net
KatFile.com
UploadRar.com

Tracklist:

1 - Dancing With The Moonlight Knight - 8:04
2 - I Know What I Like (In Your Wardrobe) - 4:07
3 - Firth Of Fifth - 9:37
4 - More Fool Me - 3:11
5 - The Battle Of Epping Forest - 11:48
6 - After The Ordeal - 4:16
7 - The Cinema Show - 11:05
8 - Aisle Of Plenty - 1:32

EAC-Log, CUE-Sheed & NFO:

Click to open spoiler
Exact Audio Copy V1.0 beta 3 from 29. August 2011

Отчёт EAC об извлечении, выполненном 25. апреля 2013, 21:57

Genesis / Selling England By The Pound

Дисковод: SONY CD-RW CRX230ED Adapter: 0 ID: 1

Режим чтения : Достоверность
Использование точного потока : Да
Отключение кэша аудио : Да
Использование указателей C2 : Нет

Коррекция смещения при чтении : 6
Способность читать области Lead-in и Lead-out : Нет
Заполнение пропущенных сэмплов тишиной : Да
Удаление блоков с тишиной в начале и конце : Нет
При вычислениях CRC использовались нулевые сэмплы : Да
Интерфейс : Установленный внешний ASPI-интерфейс

Выходной формат : Внутренние WAV-операции
Формат сэмплов : 44.100 Гц; 16 бит; стерео

TOC извлечённого CD

Трек | Старт | Длительность | Начальный сектор | Конечный сектор
———————————————————————
1 | 0:00.33 | 8:04.55 | 33 | 36387
2 | 8:05.13 | 4:08.10 | 36388 | 54997
3 | 12:13.23 | 9:38.00 | 54998 | 98347
4 | 21:51.23 | 3:11.60 | 98348 | 112732
5 | 25:03.08 | 11:49.27 | 112733 | 165934
6 | 36:52.35 | 4:16.43 | 165935 | 185177
7 | 41:09.03 | 11:03.62 | 185178 | 234964
8 | 52:12.65 | 1:35.73 | 234965 | 242162

Характеристики диапазона извлечения и сообщения об ошибках

Выбранный диапазон

Имя файла E:\MusicCD\Genesis – Selling England By The Pound\Genesis – Selling England By The Pound.wav

Пиковый уровень 95.5 %
Скорость извлечения 7.6 X
Качество диапазона 100.0 %
CRC теста 744CF95E
CRC копии 744CF95E
Копирование… OK

Ошибок не произошло

AccurateRip: сводка

Трек 1 : извлечено точно (доверие 8) [FC4F648B] (AR v2)
Трек 2 : извлечено точно (доверие 10) [0DF28F8E] (AR v2)
Трек 3 : извлечено точно (доверие 10) [54D209F9] (AR v2)
Трек 4 : извлечено точно (доверие 10) [E73E1857] (AR v2)
Трек 5 : извлечено точно (доверие 10) [4F15CD03] (AR v2)
Трек 6 : извлечено точно (доверие 10) [AFBC6617] (AR v2)
Трек 7 : извлечено точно (доверие 10) [855A4CB6] (AR v2)
Трек 8 : извлечено точно (доверие 10) [0600ED36] (AR v2)

Все треки извлечены точно

Конец отчёта

==== Контрольная сумма отчёта BD6ABAA484A6F09DAE974B578762AFB208072F6C01AE23EE51CD0D4C7501A092 ====

REM GENRE “Progressive Rock”
REM DATE 1973
REM DISCID 590C9C08
REM COMMENT “ExactAudioCopy v1.0b3”
PERFORMER “Genesis”
TITLE “Selling England By The Pound”
FILE “Genesis – Selling England By The Pound.flac” WAVE
TRACK 01 AUDIO
TITLE “Dancing With The Moonlight Knight”
PERFORMER “Genesis”
INDEX 00 00:00:00
INDEX 01 00:00:33
TRACK 02 AUDIO
TITLE “I Know What I Like (In Your Wardrobe)”
PERFORMER “Genesis”
INDEX 00 08:04:65
INDEX 01 08:05:13
TRACK 03 AUDIO
TITLE “Firth Of Fifth”
PERFORMER “Genesis”
INDEX 00 12:12:30
INDEX 01 12:13:23
TRACK 04 AUDIO
TITLE “More Fool Me”
PERFORMER “Genesis”
INDEX 00 21:49:18
INDEX 01 21:51:23
TRACK 05 AUDIO
TITLE “The Battle Of Epping Forest”
PERFORMER “Genesis”
INDEX 00 25:01:53
INDEX 01 25:03:08
TRACK 06 AUDIO
TITLE “After The Ordeal”
PERFORMER “Genesis”
INDEX 00 36:51:38
INDEX 01 36:52:35
TRACK 07 AUDIO
TITLE “The Cinema Show”
PERFORMER “Genesis”
INDEX 00 41:06:58
INDEX 01 41:09:03
TRACK 08 AUDIO
TITLE “Aisle Of Plenty”
PERFORMER “Genesis”
INDEX 00 52:12:60
INDEX 01 52:12:65


Spread the Download

Leave a Reply

Your email address will not be published. Required fields are marked *

Enter the text from the image below
 

This site uses Akismet to reduce spam. Learn how your comment data is processed.