Genesis – No Son Of Mine




  • [Total: 0    Average: 0/5]

    Artist: Genesis
    Year: 1991
    Genre: Rock
    Notes: Discogs
    Add. Notes:
    Encoder: FLAC
    Bitrate: ~700 kBit/s (44.1 kHz/16 Bit/s)
    Size: 130 MB
    Password: “slam” (without ” “)


    http://www.share-online.biz/dl/FJ368JQP9I7
    https://rapidgator.net/file/acded0bd6f68c146346d9731d35ccd09
    https://ayefiles.com/x81ukzpwfj1t/G1991-NoSonOfMin664-019.rar.html

    Onlinestatus: Share-online.biz Rapidgator.net AyeFiles.com

    Tracklist:

    1 - No Son Of Mine - 6:41
    2 - Living Forever - 5:40
    3 - Invisible Touch (Live) - 5:01
    

    EAC-Log, CUE-Sheed & NFO:

    Click to open spoiler
    Exact Audio Copy V1.0 beta 3 from 29. August 2011

    EAC extraction logfile from 16. May 2012, 13:29

    Genesis / No Son Of Mine (664 019)

    Used drive : HL-DT-STDVDRAM GE20NU11 Adapter: 0 ID: 1

    Read mode : Secure
    Utilize accurate stream : Yes
    Defeat audio cache : Yes
    Make use of C2 pointers : No

    Read offset correction : 667
    Overread into Lead-In and Lead-Out : No
    Fill up missing offset samples with silence : Yes
    Delete leading and trailing silent blocks : No
    Null samples used in CRC calculations : Yes
    Used interface : Native Win32 interface for Win NT & 2000

    Used output format : User Defined Encoder
    Selected bitrate : 896 kBit/s
    Quality : High
    Add ID3 tag : No
    Command line compressor : C:\Program Files\EAC 3\Exact Audio Copy\Flac\flac.exe
    Additional command line options : -V -8 %source%

    TOC of the extracted CD

    Track | Start | Length | Start sector | End sector
    ———————————————————
    1 | 0:00.00 | 6:42.40 | 0 | 30189
    2 | 6:42.40 | 5:40.02 | 30190 | 55691
    3 | 12:22.42 | 5:00.28 | 55692 | 78219

    Range status and errors

    Selected range

    Filename C:\Olaf der Weisse\1991 – No Son Of Mine (664 019)\Genesis – No Son Of Mine (664 019).wav

    Peak level 97.7 %
    Extraction speed 1.3 X
    Range quality 100.0 %
    Test CRC 4C3AAF6C
    Copy CRC 4C3AAF6C
    Copy OK

    No errors occurred

    AccurateRip summary

    Track 1 accurately ripped (confidence 12) [00CFBD89] (AR v1)
    Track 2 accurately ripped (confidence 12) [0098D9D2] (AR v1)
    Track 3 accurately ripped (confidence 12) [B6388A1D] (AR v1)

    All tracks accurately ripped

    End of status report

    ==== Log checksum F7C99949EA3F16532A3271FBB40A9C04D9E03590926D90C56553B30093298D31 ====

    REM GENRE “Progressive Rock”
    REM DATE 1991
    REM DISCID 19041203
    REM COMMENT “ExactAudioCopy v1.0b3”
    PERFORMER “Genesis”
    TITLE “No Son Of Mine (664 019)”
    FILE “Genesis – No Son Of Mine (664 019).flac” WAVE
    TRACK 01 AUDIO
    TITLE “No Son Of Mine”
    PERFORMER “Genesis”
    INDEX 01 00:00:00
    TRACK 02 AUDIO
    TITLE “Living Forever”
    PERFORMER “Genesis”
    INDEX 00 06:39:32
    INDEX 01 06:42:40
    TRACK 03 AUDIO
    TITLE “Invisible Touch (Live)”
    PERFORMER “Genesis”
    INDEX 01 12:22:42

    Author: Chaos

    Leave a Reply

    Your email address will not be published. Required fields are marked *

    This site uses Akismet to reduce spam. Learn how your comment data is processed.