Genesis – Mama (Reissue)




  • [Total: 0    Average: 0/5]

    Artist: Genesis
    Year: 1983/1992
    Genre: Rock
    Notes: Discogs
    Add. Notes: Reissue
    Encoder: FLAC
    Bitrate: ~900 kBit/s (44.1 kHz/16 Bit/s)
    Size: 127 MB
    Password: “slam” (without ” “)


    http://www.share-online.biz/dl/2G8ZKDQPO0WI
    https://rapidgator.net/file/bc9a3011d47323dbaa6e1bfa7efc7a6f
    https://ayefiles.com/fqoxcg7kytbg/G1983-Mam866_599-2.rar.html

    Onlinestatus: Share-online.biz Rapidgator.net AyeFiles.com

    Tracklist:

    1 - Mama - 6:08
    2 - Mama (Long Version) - 7:27
    3 - It's Gonna Get Better (Long 
    Version) - 6:25
    

    EAC-Log, CUE-Sheed & NFO:

    Click to open spoiler
    Exact Audio Copy V1.0 beta 3 from 29. August 2011

    EAC extraction logfile from 20. March 2012, 17:00

    Genesis / Mama (CD-Single)

    Used drive : MATSHITABD-MLT UJ240ES Adapter: 0 ID: 1

    Read mode : Secure
    Utilize accurate stream : Yes
    Defeat audio cache : Yes
    Make use of C2 pointers : No

    Read offset correction : 103
    Overread into Lead-In and Lead-Out : No
    Fill up missing offset samples with silence : Yes
    Delete leading and trailing silent blocks : No
    Null samples used in CRC calculations : Yes
    Used interface : Native Win32 interface for Win NT & 2000

    Used output format : User Defined Encoder
    Selected bitrate : 768 kBit/s
    Quality : High
    Add ID3 tag : No
    Command line compressor : C:\Program Files (x86)\Exact Audio Copy\FLAC\FLAC.EXE
    Additional command line options : -V -8 %source%

    TOC of the extracted CD

    Track | Start | Length | Start sector | End sector
    ———————————————————
    1 | 0:00.33 | 6:08.12 | 33 | 27644
    2 | 6:08.45 | 7:27.50 | 27645 | 61219
    3 | 13:36.20 | 6:25.38 | 61220 | 90132

    Range status and errors

    Selected range

    Filename C:\Genesis – Mama (CDS) (1992) [Vertigo, 866 599-2]\Genesis – Mama (CD-Single).wav

    Peak level 97.5 %
    Extraction speed 3.4 X
    Range quality 100.0 %
    Test CRC 51525903
    Copy CRC 51525903
    Copy OK

    No errors occurred

    AccurateRip summary

    Track 1 accurately ripped (confidence 4) [171B7FD4] (AR v2)
    Track 2 accurately ripped (confidence 5) [B02A3813] (AR v2)
    Track 3 accurately ripped (confidence 4) [6AD71577] (AR v2)

    All tracks accurately ripped

    End of status report

    ==== Log checksum 4704649F7ED4CB268C43EB64A6FA646725DAB219FD4CE0F5FA9111A8D41C2413 ====

    REM GENRE Rock
    REM DISCID 1D04B103
    REM COMMENT “ExactAudioCopy v1.0b3”
    CATALOG 0042286659923
    PERFORMER “Genesis”
    TITLE “Mama (CD-Single)”
    FILE “Genesis – Mama (CD-Single).flac” WAVE
    TRACK 01 AUDIO
    TITLE “Mama”
    PERFORMER “Genesis”
    INDEX 00 00:00:00
    INDEX 01 00:00:33
    TRACK 02 AUDIO
    TITLE “Mama (Long Version)”
    PERFORMER “Genesis”
    INDEX 00 06:06:45
    INDEX 01 06:08:45
    TRACK 03 AUDIO
    TITLE “It’s Gonna Get Better (Long Version)”
    PERFORMER “Genesis”
    INDEX 00 13:34:20
    INDEX 01 13:36:20

    Author: Chaos

    Leave a Reply

    Your email address will not be published. Required fields are marked *

    This site uses Akismet to reduce spam. Learn how your comment data is processed.