Genesis – Land Of Confusion




  • [Total: 0    Average: 0/5]

    Artist: Genesis
    Year: 1986
    Genre: Rock
    Notes: Discogs
    Add. Notes:
    Encoder: FLAC
    Bitrate: ~700 kBit/s (44.1 kHz/16 Bit/s)
    Size: 184 MB
    Password: “slam” (without ” “)


    http://www.share-online.biz/dl/9ZDZKDQP21WF
    https://rapidgator.net/file/20a3f4a317c26dc98ed55d199e588fbd
    https://ayefiles.com/zxhllxbycd78/G1986-LanOfConSNEG3-12.rar.html

    Onlinestatus: Share-online.biz Rapidgator.net AyeFiles.com

    Tracklist:

    1 - Land Of Confusion - 4:43
    2 - Land Of Confusion (Extended 
    Version) - 6:55
    3 - Feeding The Fire - 5:54
    4 - Do The Neurotic - 7:00
    

    EAC-Log, CUE-Sheed & NFO:

    Click to open spoiler
    Exact Audio Copy V1.0 beta 3 from 29. August 2011

    EAC extraction logfile from 16. May 2012, 12:52

    Genesis / Land Of Confusion (SNEG3-12)

    Used drive : HL-DT-STDVDRAM GE20NU11 Adapter: 0 ID: 1

    Read mode : Secure
    Utilize accurate stream : Yes
    Defeat audio cache : Yes
    Make use of C2 pointers : No

    Read offset correction : 667
    Overread into Lead-In and Lead-Out : No
    Fill up missing offset samples with silence : Yes
    Delete leading and trailing silent blocks : No
    Null samples used in CRC calculations : Yes
    Used interface : Native Win32 interface for Win NT & 2000

    Used output format : User Defined Encoder
    Selected bitrate : 896 kBit/s
    Quality : High
    Add ID3 tag : No
    Command line compressor : C:\Program Files\EAC 3\Exact Audio Copy\Flac\flac.exe
    Additional command line options : -V -8 %source%

    TOC of the extracted CD

    Track | Start | Length | Start sector | End sector
    ———————————————————
    1 | 0:00.50 | 4:44.52 | 50 | 21401
    2 | 4:45.27 | 6:57.38 | 21402 | 52714
    3 | 11:42.65 | 5:52.55 | 52715 | 79169
    4 | 17:35.45 | 7:05.05 | 79170 | 111049

    Range status and errors

    Selected range

    Filename C:\Olaf der Weisse\1986 – Land Of Confusion (SNEG3-12)\Genesis – Land Of Confusion (SNEG3-12).wav

    Peak level 100.0 %
    Extraction speed 1.0 X
    Range quality 100.0 %
    Test CRC 35EB3A94
    Copy CRC 35EB3A94
    Copy OK

    No errors occurred

    AccurateRip summary

    Track 1 accurately ripped (confidence 6) [B9693D09] (AR v2)
    Track 2 accurately ripped (confidence 6) [011856A7] (AR v2)
    Track 3 accurately ripped (confidence 6) [CCE046CD] (AR v2)
    Track 4 accurately ripped (confidence 6) [7B8BACA5] (AR v2)

    All tracks accurately ripped

    End of status report

    ==== Log checksum DE48000DBEFE26D62236148398AC692C7D9C6AC3533E6873E55DB52ADFB17FC3 ====

    REM GENRE “Progressive Rock”
    REM DATE 1986
    REM DISCID 2B05C804
    REM COMMENT “ExactAudioCopy v1.0b3”
    PERFORMER “Genesis”
    TITLE “Land Of Confusion (SNEG3-12)”
    FILE “Genesis – Land Of Confusion (SNEG3-12).flac” WAVE
    TRACK 01 AUDIO
    TITLE “Land Of Confusion”
    PERFORMER “Genesis”
    FLAGS PRE
    INDEX 00 00:00:00
    INDEX 01 00:00:50
    TRACK 02 AUDIO
    TITLE “Land Of Confusion (Extended Version)”
    PERFORMER “Genesis”
    FLAGS PRE
    INDEX 01 04:45:27
    TRACK 03 AUDIO
    TITLE “Feeding The Fire”
    PERFORMER “Genesis”
    FLAGS PRE
    INDEX 01 11:42:65
    TRACK 04 AUDIO
    TITLE “Do The Neurotic”
    PERFORMER “Genesis”
    FLAGS PRE
    INDEX 00 17:35:25
    INDEX 01 17:35:45

    Author: Chaos

    Leave a Reply

    Your email address will not be published. Required fields are marked *

    This site uses Akismet to reduce spam. Learn how your comment data is processed.