Genesis – Invisible Touch




  • [Total: 0    Average: 0/5]

    Artist: Genesis
    Year: 1986
    Genre: Rock
    Notes: Discogs
    Add. Notes:
    Encoder: FLAC
    Bitrate: ~800 kBit/s (44.1 kHz/16 Bit/s)
    Size: 340 MB
    Password: “slam” (without ” “)


    http://www.share-online.biz/dl/SWFZKDQPEW1W
    http://www.share-online.biz/dl/3UAZKDQP66
    https://rapidgator.net/file/7648a2cc47d5fd5f0fed5d39c98b0170
    https://rapidgator.net/file/b29f38804c2f04fb1608e98ddc045893
    https://ayefiles.com/20jrg31w7yg9/G1986-InvTou81641-2.part1.rar.html
    https://ayefiles.com/5n7tchw1eoyk/G1986-InvTou81641-2.part2.rar.html

    Onlinestatus: Share-online.biz Rapidgator.net AyeFiles.com

    Tracklist:

    1 - Invisible Touch - 3:26
    2 - Tonight, Tonight, Tonight - 8:49
    3 - Land Of Confusion - 4:45
    4 - In Too Deep - 4:59
    5 - Anything She Does - 4:06
     Domino - (10:42)
    6.1 - Part One—In The Glow Of The 
    Night - 
    6.2 - Part Two—The Last Domino - 
    7 - Throwing It All Away - 4:41
    8 - The Brazilian - 4:49
    

    EAC-Log, CUE-Sheed & NFO:

    Click to open spoiler
    Exact Audio Copy V1.0 beta 3 from 29. August 2011

    Отчёт EAC об извлечении, выполненном 25. апреля 2013, 22:16

    Genesis / Invisible Touch

    Дисковод: SONY CD-RW CRX230ED Adapter: 0 ID: 1

    Режим чтения : Достоверность
    Использование точного потока : Да
    Отключение кэша аудио : Да
    Использование указателей C2 : Нет

    Коррекция смещения при чтении : 6
    Способность читать области Lead-in и Lead-out : Нет
    Заполнение пропущенных сэмплов тишиной : Да
    Удаление блоков с тишиной в начале и конце : Нет
    При вычислениях CRC использовались нулевые сэмплы : Да
    Интерфейс : Установленный внешний ASPI-интерфейс

    Выходной формат : Внутренние WAV-операции
    Формат сэмплов : 44.100 Гц; 16 бит; стерео

    TOC извлечённого CD

    Трек | Старт | Длительность | Начальный сектор | Конечный сектор
    ———————————————————————
    1 | 0:00.00 | 3:29.23 | 0 | 15697
    2 | 3:29.23 | 8:53.42 | 15698 | 55714
    3 | 12:22.65 | 4:46.30 | 55715 | 77194
    4 | 17:09.20 | 4:59.15 | 77195 | 99634
    5 | 22:08.35 | 4:09.05 | 99635 | 118314
    6 | 26:17.40 | 10:45.05 | 118315 | 166694
    7 | 37:02.45 | 3:51.15 | 166695 | 184034
    8 | 40:53.60 | 4:49.05 | 184035 | 205714

    Характеристики диапазона извлечения и сообщения об ошибках

    Выбранный диапазон

    Имя файла E:\MusicCD\Genesis – Invisible Touch\Genesis – Invisible Touch.wav

    Пиковый уровень 99.8 %
    Скорость извлечения 8.0 X
    Качество диапазона 100.0 %
    CRC теста 12D042AB
    CRC копии 12D042AB
    Копирование… OK

    Ошибок не произошло

    AccurateRip: сводка

    Трек 1 отсутствует в базе данных
    Трек 2 отсутствует в базе данных
    Трек 3 отсутствует в базе данных
    Трек 4 отсутствует в базе данных
    Трек 5 отсутствует в базе данных
    Трек 6 отсутствует в базе данных
    Трек 7 отсутствует в базе данных
    Трек 8 отсутствует в базе данных

    Ни одного трека нет в базе AccurateRip

    Конец отчёта

    ==== Контрольная сумма отчёта ACB92B100EDFC8AC5A9503237A2C141B6467F094CFD0E5C9C6D901E9D85E6B3C ====

    REM GENRE Pop
    REM DATE 1986
    REM DISCID 510AB608
    REM COMMENT “ExactAudioCopy v1.0b3”
    PERFORMER “Genesis”
    TITLE “Invisible Touch”
    FILE “Genesis – Invisible Touch.flac” WAVE
    TRACK 01 AUDIO
    TITLE “Invisible Touch”
    PERFORMER “Genesis”
    INDEX 01 00:00:00
    TRACK 02 AUDIO
    TITLE “Tonight, Tonight, Tonight”
    PERFORMER “Genesis”
    INDEX 00 03:27:05
    INDEX 01 03:29:23
    TRACK 03 AUDIO
    TITLE “Land Of Confusion”
    PERFORMER “Genesis”
    INDEX 00 12:19:65
    INDEX 01 12:22:65
    TRACK 04 AUDIO
    TITLE “In Too Deep”
    PERFORMER “Genesis”
    INDEX 00 17:07:33
    INDEX 01 17:09:20
    TRACK 05 AUDIO
    TITLE “Anything She Does”
    PERFORMER “Genesis”
    INDEX 00 22:06:70
    INDEX 01 22:08:35
    TRACK 06 AUDIO
    TITLE “Domino – Part One – In The Glow Of The Night – Part Two – The Last Domino”
    PERFORMER “Genesis”
    INDEX 00 26:14:65
    INDEX 01 26:17:40
    INDEX 02 30:45:10
    TRACK 07 AUDIO
    TITLE “Throwing It All Away”
    PERFORMER “Genesis”
    INDEX 00 36:59:40
    INDEX 01 37:02:45
    TRACK 08 AUDIO
    TITLE “The Brazilian”
    PERFORMER “Genesis”
    INDEX 00 40:51:35
    INDEX 01 40:53:60

    Author: Chaos

    Leave a Reply

    Your email address will not be published. Required fields are marked *

    This site uses Akismet to reduce spam. Learn how your comment data is processed.