Genesis – I Can’t Dance




  • [Total: 0    Average: 0/5]

    Artist: Genesis
    Year: 1991
    Genre: Rock
    Notes: Discogs
    Add. Notes:
    Encoder: FLAC
    Bitrate: ~800 kBit/s (44.1 kHz/16 Bit/s)
    Size: 124 MB
    Password: “slam” (without ” “)


    http://www.share-online.biz/dl/YDR58JQPMX
    https://rapidgator.net/file/ea2aabc729ee59c552b5dd7676f48070
    https://ayefiles.com/dwbfdf5v6iog/G1991-IcanDan665-091.rar.html

    Onlinestatus: Share-online.biz Rapidgator.net AyeFiles.com

    Tracklist:

    1 - I Can't Dance - 4:00
    2 - On The Shoreline - 4:45
    3 - I Can't Dance (Sex Mix) - 6:59
    

    EAC-Log, CUE-Sheed & NFO:

    Click to open spoiler
    Exact Audio Copy V1.0 beta 3 from 29. August 2011

    EAC extraction logfile from 16. May 2012, 14:06

    Genesis / I Can’t Dance (665 091)

    Used drive : HL-DT-STDVDRAM GE20NU11 Adapter: 0 ID: 1

    Read mode : Secure
    Utilize accurate stream : Yes
    Defeat audio cache : Yes
    Make use of C2 pointers : No

    Read offset correction : 667
    Overread into Lead-In and Lead-Out : No
    Fill up missing offset samples with silence : Yes
    Delete leading and trailing silent blocks : No
    Null samples used in CRC calculations : Yes
    Used interface : Native Win32 interface for Win NT & 2000

    Used output format : User Defined Encoder
    Selected bitrate : 896 kBit/s
    Quality : High
    Add ID3 tag : No
    Command line compressor : C:\Program Files\EAC 3\Exact Audio Copy\Flac\flac.exe
    Additional command line options : -V -8 %source%

    TOC of the extracted CD

    Track | Start | Length | Start sector | End sector
    ———————————————————
    1 | 0:00.32 | 4:02.03 | 32 | 18184
    2 | 4:02.35 | 4:47.12 | 18185 | 39721
    3 | 8:49.47 | 5:27.58 | 39722 | 64304
    4 | 14:17.30 | 4:54.42 | 64305 | 86396

    Range status and errors

    Selected range

    Filename C:\Olaf der Weisse\1991 – I Can’t Dance (665 091)\Genesis – I Can’t Dance (665 091).wav

    Peak level 100.0 %
    Extraction speed 1.4 X
    Range quality 100.0 %
    Test CRC 4C7C5238
    Copy CRC 4C7C5238
    Copy OK

    No errors occurred

    AccurateRip summary

    Track 1 accurately ripped (confidence 4) [954EFFF7] (AR v2)
    Track 2 accurately ripped (confidence 4) [2CA12EDA] (AR v2)
    Track 3 accurately ripped (confidence 4) [F0C07C6D] (AR v2)
    Track 4 accurately ripped (confidence 4) [F4CB2CE4] (AR v2)

    All tracks accurately ripped

    End of status report

    ==== Log checksum 7DA2F123E1910565DCD9721FE317BE1B8975546B0412C869E374310E9AD39B73 ====

    REM GENRE “Progressive Rock”
    REM DATE 1991
    REM DISCID 2B047F04
    REM COMMENT “ExactAudioCopy v1.0b3”
    PERFORMER “Genesis”
    TITLE “I Can’t Dance (665 091)”
    FILE “Genesis – I Can’t Dance (665 091).flac” WAVE
    TRACK 01 AUDIO
    TITLE “I Can’t Dance”
    PERFORMER “Genesis”
    INDEX 00 00:00:00
    INDEX 01 00:00:32
    TRACK 02 AUDIO
    TITLE “On The Shoreline”
    PERFORMER “Genesis”
    INDEX 00 04:01:62
    INDEX 01 04:02:35
    TRACK 03 AUDIO
    TITLE “In Too Deep Live”
    PERFORMER “Genesis”
    INDEX 00 08:48:50
    INDEX 01 08:49:47
    TRACK 04 AUDIO
    TITLE “That’s All (Live)”
    PERFORMER “Genesis”
    INDEX 00 14:17:27
    INDEX 01 14:17:30

    Author: Chaos

    Leave a Reply

    Your email address will not be published. Required fields are marked *

    This site uses Akismet to reduce spam. Learn how your comment data is processed.