Genesis – Genesis (Reissue)




  • [Total: 0    Average: 0/5]

    Artist: Genesis
    Year: 1983/1984
    Genre: Rock
    Notes: Discogs
    Add. Notes: Reissue
    Encoder: FLAC
    Bitrate: ~800 kBit/s (44.1 kHz/16 Bit/s)
    Size: 416 MB
    Password: “slam” (without ” “)


    http://www.share-online.biz/dl/GB8ZKDQPWJC
    http://www.share-online.biz/dl/LF3ZKDQPA8
    https://rapidgator.net/file/8905af0656587488c1113e837aaaf2d3
    https://rapidgator.net/file/ab70f9bd4d56d39d534731a74da08a53
    https://ayefiles.com/zuvz3v2e9bnk/G1983-Gen814_287-2-DE-Re84.part1.rar.html
    https://ayefiles.com/6vrn043yq3ds/G1983-Gen814_287-2-DE-Re84.part2.rar.html

    Onlinestatus: Share-online.biz Rapidgator.net AyeFiles.com

    Tracklist:

    1 - Mama - 6:47
    2 - That's All - 4:24
    3 - Home By The Sea - 5:07
    4 - Second Home By The Sea - 6:08
    5 - Illegal Alien - 5:13
    6 - Takin' It All Too Hard - 3:56
    7 - Just A Job To Do - 4:46
    8 - Silver Rainbow - 4:28
    9 - It's Gonna Get Better - 5:00
    

    EAC-Log, CUE-Sheed & NFO:

    Click to open spoiler
    Exact Audio Copy V1.0 beta 3 from 29. August 2011

    EAC extraction logfile from 29. January 2014, 13:36

    Genesis / Genesis

    Used drive : TSSTcorpCD/DVDW TS-L632D Adapter: 0 ID: 0

    Read mode : Secure
    Utilize accurate stream : Yes
    Defeat audio cache : Yes
    Make use of C2 pointers : No

    Read offset correction : 6
    Overread into Lead-In and Lead-Out : No
    Fill up missing offset samples with silence : Yes
    Delete leading and trailing silent blocks : No
    Null samples used in CRC calculations : Yes
    Used interface : Native Win32 interface for Win NT & 2000

    Used output format : User Defined Encoder
    Selected bitrate : 896 kBit/s
    Quality : High
    Add ID3 tag : No
    Command line compressor : C:\Program Files (x86)\Exact Audio Copy\FLAC\FLAC.EXE
    Additional command line options : -8 -V -T “Date=%year%” -T “Genre=%genre%” -T “COMMENT=ripped by sewerok® & Big_S®” %source%

    TOC of the extracted CD

    Track | Start | Length | Start sector | End sector
    ———————————————————
    1 | 0:00.32 | 6:48.43 | 32 | 30674
    2 | 6:49.00 | 4:26.05 | 30675 | 50629
    3 | 11:15.05 | 5:07.57 | 50630 | 73711
    4 | 16:22.62 | 6:08.48 | 73712 | 101359
    5 | 22:31.35 | 5:15.07 | 101360 | 124991
    6 | 27:46.42 | 3:58.15 | 124992 | 142856
    7 | 31:44.57 | 4:47.25 | 142857 | 164406
    8 | 36:32.07 | 4:29.43 | 164407 | 184624
    9 | 41:01.50 | 5:00.50 | 184625 | 207174

    Range status and errors

    Selected range

    Filename E:\Genesis – Genesis [1983](Vertigo 814 287-2 W. Germany)\Genesis – Genesis.wav

    Peak level 100.0 %
    Extraction speed 1.7 X
    Range quality 100.0 %
    Test CRC 79749F8B
    Copy CRC 79749F8B
    Copy OK

    No errors occurred

    AccurateRip summary

    Track 1 accurately ripped (confidence 74) [02B27976] (AR v2)
    Track 2 accurately ripped (confidence 74) [E678F411] (AR v2)
    Track 3 accurately ripped (confidence 74) [F77AB49B] (AR v2)
    Track 4 accurately ripped (confidence 74) [F51AF4C1] (AR v2)
    Track 5 accurately ripped (confidence 74) [6BCA3A89] (AR v2)
    Track 6 accurately ripped (confidence 73) [4C001413] (AR v2)
    Track 7 accurately ripped (confidence 73) [F99FB254] (AR v2)
    Track 8 accurately ripped (confidence 73) [1AA3ACFA] (AR v2)
    Track 9 accurately ripped (confidence 70) [A873042E] (AR v2)

    All tracks accurately ripped

    End of status report

    —- CUETools DB Plugin V2.1.4

    [CTDB TOCID: BBa4vgiEarfH8rF2Kyj2zVok8jc-] found
    Submit result: BBa4vgiEarfH8rF2Kyj2zVok8jc- has been confirmed
    Track | CTDB Status
    1 | (2/2) Accurately ripped
    2 | (2/2) Accurately ripped
    3 | (2/2) Accurately ripped
    4 | (2/2) Accurately ripped
    5 | (2/2) Accurately ripped
    6 | (2/2) Accurately ripped
    7 | (2/2) Accurately ripped
    8 | (1/2) Accurately ripped
    9 | (1/2) Accurately ripped

    ==== Log checksum DE361B8D6F32416F4C89A8C7D4F45214B705AEE22BAA5E0E3BDDCB84F17B89E7 ====

    REM GENRE “Progressive Rock”
    REM DATE 1983
    REM DISCID 810ACA09
    REM COMMENT “ExactAudioCopy v1.0b3”
    PERFORMER “Genesis”
    TITLE “Genesis”
    FILE “Genesis – Genesis.flac” WAVE
    TRACK 01 AUDIO
    TITLE “Mama”
    PERFORMER “Genesis”
    INDEX 00 00:00:00
    INDEX 01 00:00:32
    TRACK 02 AUDIO
    TITLE “That’s All”
    PERFORMER “Genesis”
    INDEX 00 06:47:65
    INDEX 01 06:49:00
    TRACK 03 AUDIO
    TITLE “Home By The Sea”
    PERFORMER “Genesis”
    INDEX 00 11:13:18
    INDEX 01 11:15:05
    TRACK 04 AUDIO
    TITLE “Second Home By The Sea”
    PERFORMER “Genesis”
    INDEX 01 16:22:62
    TRACK 05 AUDIO
    TITLE “Illegal Alien”
    PERFORMER “Genesis”
    INDEX 00 22:30:68
    INDEX 01 22:31:35
    TRACK 06 AUDIO
    TITLE “Takin’ It All Too Hard”
    PERFORMER “Genesis”
    INDEX 00 27:45:03
    INDEX 01 27:46:42
    TRACK 07 AUDIO
    TITLE “Just A Job To Do”
    PERFORMER “Genesis”
    INDEX 00 31:43:30
    INDEX 01 31:44:57
    TRACK 08 AUDIO
    TITLE “Silver Rainbow”
    PERFORMER “Genesis”
    INDEX 00 36:31:18
    INDEX 01 36:32:07
    TRACK 09 AUDIO
    TITLE “It’s Gonna Get Better”
    PERFORMER “Genesis”
    INDEX 00 41:00:60
    INDEX 01 41:01:50

    Author: Chaos

    Leave a Reply

    Your email address will not be published. Required fields are marked *

    This site uses Akismet to reduce spam. Learn how your comment data is processed.