Genesis – Duke (Reissue)




  • [Total: 0    Average: 0/5]

    Artist: Genesis
    Year: 1980/1985
    Genre: Rock
    Notes: Discogs
    Add. Notes: Reissue
    Encoder: FLAC
    Bitrate: ~800 kBit/s (44.1 kHz/16 Bit/s)
    Size: 385 MB
    Password: “slam” (without ” “)


    http://www.share-online.biz/dl/09M3GDQPQXKG
    http://www.share-online.biz/dl/OUJ3GDQPBSTC
    https://rapidgator.net/file/3ed6b75564dff03b7931de0967c97edb
    https://rapidgator.net/file/b2dfd30687509eb860110c146ee8475c
    https://ayefiles.com/4m9d3kvraina/G1980-Duk-16014-2-RE85.part1.rar.html
    https://ayefiles.com/pmrg7wezh3rv/G1980-Duk-16014-2-RE85.part2.rar.html

    Onlinestatus: Share-online.biz Rapidgator.net AyeFiles.com

    Tracklist:

    1 - Behind The Lines - 5:31
    2 - Duchess - 6:40
    3 - Guide Vocal - 1:18
    4 - Man Of Our Times - 5:35
    5 - Misunderstanding - 3:11
    6 - Heathaze - 5:00
    7 - Turn It On Again - 3:50
    8 - Alone Tonight - 3:54
    9 - Cul-De-Sac - 5:02
    10 - Please Don't Ask - 4:00
    11 - Duke's Travels - 8:41
    12 - Duke's End - 2:04
    

    EAC-Log, CUE-Sheed & NFO:

    Click to open spoiler
    Exact Audio Copy V1.0 beta 3 from 29. August 2011

    Отчёт EAC об извлечении, выполненном 21. января
    2014, 15:45

    Genesis / Duke

    Дисковод: SONY CD-RW CRX230ED Adapter: 0 ID:
    1

    Режим чтения : Достоверность
    Использование точного потока : Да
    Отключение кэша аудио : Да
    Использование указателей C2 : Нет

    Коррекция смещения при чтении : 6
    Способность читать области Lead-in и Lead-out :
    Нет
    Заполнение пропущенных сэмплов тишиной :
    Да
    Удаление блоков с тишиной в начале и конце :
    Нет
    При вычислениях CRC использовались нулевые
    сэмплы : Да
    Интерфейс : Встроенный
    Win32-интерфейс для Win NT/2000

    Выходной формат : Внутренние WAV-операции
    Формат сэмплов : 44.100 Гц; 16 бит; стерео

    TOC извлечённого CD

    Трек | Старт | Длительность | Начальный сектор
    | Конечный сектор
    ——————————————————————

    1 | 0:00.32 | 5:31.43 | 32 | 24899
    2 | 5:32.00 | 6:37.20 | 24900 | 54694
    3 | 12:09.20 | 1:21.42 | 54695 | 60811
    4 | 13:30.62 | 5:35.63 | 60812 | 85999
    5 | 19:06.50 | 3:14.67 | 86000 |
    100616
    6 | 22:21.42 | 5:01.50 | 100617 |
    123241
    7 | 27:23.17 | 3:51.43 | 123242 |
    140609
    8 | 31:14.60 | 3:57.65 | 140610 |
    158449
    9 | 35:12.50 | 5:05.37 | 158450 |
    181361
    10 | 40:18.12 | 4:02.45 | 181362 |
    199556
    11 | 44:20.57 | 8:39.20 | 199557 |
    238501
    12 | 53:00.02 | 2:06.63 | 238502 |
    248014

    Характеристики диапазона извлечения и сообщения
    об ошибках

    Выбранный диапазон

    Имя файла E:\MusicCD\Genesis – Duke\Genesis –
    Duke.wav

    Пиковый уровень 89.1 %
    Скорость извлечения 7.8 X
    Качество диапазона 100.0 %
    CRC теста CF285876
    CRC копии CF285876
    Копирование… OK

    Ошибок не произошло

    AccurateRip: сводка

    Трек 1 : извлечено точно (доверие 7) [DCB9A22B]
    (AR v2)
    Трек 2 : извлечено точно (доверие 6) [8E069AC6]
    (AR v2)
    Трек 3 : извлечено точно (доверие 7) [C7C9CBDD]
    (AR v2)
    Трек 4 : извлечено точно (доверие 6) [7F0BFAD4]
    (AR v2)
    Трек 5 : извлечено точно (доверие 7) [C4AB4F7E]
    (AR v2)
    Трек 6 : извлечено точно (доверие 7) [EB4F5E18]
    (AR v2)
    Трек 7 : извлечено точно (доверие 8) [7DAD4B48]
    (AR v2)
    Трек 8 : извлечено точно (доверие 7) [51E6BA21]
    (AR v2)
    Трек 9 : извлечено точно (доверие 7) [8CDFE0F4]
    (AR v2)
    Трек 10 : извлечено точно (доверие 8) [30476955]
    (AR v2)
    Трек 11 : извлечено точно (доверие 7) [2A5BD026]
    (AR v2)
    Трек 12 : извлечено точно (доверие 8) [6882AA55]
    (AR v2)

    Все треки извлечены точно

    Конец отчёта

    ==== Контрольная сумма отчёта
    7AF6228881475E3F8B82C2A0189A551C8868FA78EA3C
    AB8A6A32526BAA744568 ====

    REM GENRE Rock
    REM DATE 1980
    REM DISCID 8F0CEA0C
    REM COMMENT “ExactAudioCopy v1.0b3”
    PERFORMER “Genesis”
    TITLE “Duke”
    FILE “Genesis – Duke.flac” WAVE
    TRACK 01 AUDIO
    TITLE “Behind The Lines”
    PERFORMER “Genesis”
    INDEX 00 00:00:00
    INDEX 01 00:00:32
    TRACK 02 AUDIO
    TITLE “Duchess”
    PERFORMER “Genesis”
    INDEX 01 05:32:00
    TRACK 03 AUDIO
    TITLE “Guide Vocal”
    PERFORMER “Genesis”
    INDEX 00 12:09:19
    INDEX 01 12:09:20
    TRACK 04 AUDIO
    TITLE “Man Of Our Times”
    PERFORMER “Genesis”
    INDEX 00 13:30:61
    INDEX 01 13:30:62
    TRACK 05 AUDIO
    TITLE “Misunderstanding”
    PERFORMER “Genesis”
    INDEX 00 19:04:74
    INDEX 01 19:06:50
    TRACK 06 AUDIO
    TITLE “Heathaze”
    PERFORMER “Genesis”
    INDEX 00 22:19:16
    INDEX 01 22:21:42
    TRACK 07 AUDIO
    TITLE “Turn It On Again”
    PERFORMER “Genesis”
    INDEX 00 27:20:49
    INDEX 01 27:23:17
    TRACK 08 AUDIO
    TITLE “Alone Tonight”
    PERFORMER “Genesis”
    INDEX 00 31:12:31
    INDEX 01 31:14:60
    TRACK 09 AUDIO
    TITLE “Cul-De-Sac”
    PERFORMER “Genesis”
    INDEX 00 35:10:74
    INDEX 01 35:12:50
    TRACK 10 AUDIO
    TITLE “Please Don’t Ask”
    PERFORMER “Genesis”
    INDEX 00 40:17:26
    INDEX 01 40:18:12
    TRACK 11 AUDIO
    TITLE “Duke’s Travels”
    PERFORMER “Genesis”
    INDEX 00 44:18:74
    INDEX 01 44:20:57
    TRACK 12 AUDIO
    TITLE “Duke’s End”
    PERFORMER “Genesis”
    INDEX 00 53:00:01
    INDEX 01 53:00:02

    Author: Chaos

    Leave a Reply

    Your email address will not be published. Required fields are marked *

    This site uses Akismet to reduce spam. Learn how your comment data is processed.