Genesis – Duke (Japanese Edition)




  • [Total: 0    Average: 0/5]

    Artist: Genesis
    Year: 1980/1986
    Genre: Rock
    Notes: Discogs
    Add. Notes: Japanese Edition
    Encoder: FLAC
    Bitrate: ~800 kBit/s (44.1 kHz/16 Bit/s)
    Size: 384,52 MB
    Password: – not required –


    Crypted via FileCrypt.cc:

    .

    Crypted via Relink.to:

    Tracklist:

    1 - Behind The Lines - 5:43
    2 - Duchess - 6:25
    3 - Guide Vocal - 1:21
    4 - Man Of Our Times - 5:34
    5 - Misunderstanding - 3:13
    6 - Heathaze - 4:57
    7 - Turn It On Again - 3:46
    8 - Alone Tonight - 3:54
    9 - Cul-De-Sac - 5:06
    10 - Please Don't Ask - 4:00
    11 - Duke's Travels - 8:39
    12 - Duke's End - 3:08
    

    EAC-Log, CUE-Sheed & NFO:

    Click to open spoiler

    Genesis / Duke.32VD-1036.Japan

    Used drive : PLEXTOR CD-R PREMIUM2 Adapter: 0 ID: 1

    Read mode : Secure
    Utilize accurate stream : Yes
    Defeat audio cache : Yes
    Make use of C2 pointers : No

    Read offset correction : 30
    Overread into Lead-In and Lead-Out : No
    Fill up missing offset samples with silence : Yes
    Delete leading and trailing silent blocks : No
    Null samples used in CRC calculations : Yes
    Used interface : Installed external ASPI interface

    Used output format : User Defined Encoder
    Selected bitrate : 768 kBit/s
    Quality : High
    Add ID3 tag : No
    Command line compressor : C:\Program Files\Exact Audio Copy\FLAC\FLAC.EXE
    Additional command line options : -6 -V -T “ARTIST=%a” -T “TITLE=%t” -T “ALBUM=%g” -T “DATE=%y” -T “TRACKNUMBER=%n” -T “GENRE=%m” -T “COMMENT=%e” %s -o %d

    TOC of the extracted CD

    Track | Start | Length | Start sector | End sector
    ———————————————————
    1 | 0:00.00 | 5:31.72 | 0 | 24896
    2 | 5:31.72 | 6:37.68 | 24897 | 54739
    3 | 12:09.65 | 1:21.45 | 54740 | 60859
    4 | 13:31.35 | 5:36.17 | 60860 | 86076
    5 | 19:07.52 | 3:15.28 | 86077 | 100729
    6 | 22:23.05 | 4:59.37 | 100730 | 123191
    7 | 27:22.42 | 3:45.28 | 123192 | 140094
    8 | 31:07.70 | 3:56.70 | 140095 | 157864
    9 | 35:04.65 | 5:06.02 | 157865 | 180816
    10 | 40:10.67 | 4:03.58 | 180817 | 199099
    11 | 44:14.50 | 8:40.07 | 199100 | 238106
    12 | 52:54.57 | 2:08.20 | 238107 | 247726

    Range status and errors

    Selected range

    Filename H:\Temp\Genesis\Duke.1980.32VD-1036.Toshiba-EMI.Japan\Genesis – Duke.32VD-1036.Japan.wav

    Peak level 100.0 %
    Range quality 99.9 %
    Test CRC 31BB9D76
    Copy CRC 31BB9D76
    Copy OK

    No errors occurred

    AccurateRip summary

    Track 1 accurately ripped (confidence 2) [FDC77C7B]
    Track 2 accurately ripped (confidence 2) [A3DED433]
    Track 3 accurately ripped (confidence 2) [D9B957F8]
    Track 4 accurately ripped (confidence 2) [54B7DBAE]
    Track 5 accurately ripped (confidence 2) [D2D9B0F7]
    Track 6 not present in database
    Track 7 accurately ripped (confidence 2) [B49B9162]
    Track 8 accurately ripped (confidence 2) [8DFE1BB3]
    Track 9 accurately ripped (confidence 2) [AC503AEF]
    Track 10 accurately ripped (confidence 2) [1C54FBCA]
    Track 11 accurately ripped (confidence 2) [A4F53499]
    Track 12 accurately ripped (confidence 2) [82B81FB3]

    11 track(s) accurately ripped
    1 track(s) not present in the AccurateRip database

    Some tracks could not be verified as accurate

    End of status report

    REM GENRE “Progressive Rock”
    REM DATE 1980
    REM DISCID 9B0CE70C
    REM COMMENT “ExactAudioCopy v0.99pb5”
    PERFORMER “Genesis”
    TITLE “Duke.32VD-1036.Japan”
    FILE “Genesis – Duke.32VD-1036.Japan.flac” WAVE
    TRACK 01 AUDIO
    TITLE “Behind The Lines”
    PERFORMER “Genesis”
    INDEX 01 00:00:00
    TRACK 02 AUDIO
    TITLE “Duchess”
    PERFORMER “Genesis”
    INDEX 01 05:31:72
    TRACK 03 AUDIO
    TITLE “Guide Vocal”
    PERFORMER “Genesis”
    INDEX 01 12:09:65
    TRACK 04 AUDIO
    TITLE “Man Of Our Times”
    PERFORMER “Genesis”
    INDEX 01 13:31:35
    TRACK 05 AUDIO
    TITLE “Misunderstanding”
    PERFORMER “Genesis”
    INDEX 00 19:04:57
    INDEX 01 19:07:52
    TRACK 06 AUDIO
    TITLE “Heathaze”
    PERFORMER “Genesis”
    INDEX 00 22:20:70
    INDEX 01 22:23:05
    TRACK 07 AUDIO
    TITLE “Turn It On Again”
    PERFORMER “Genesis”
    INDEX 00 27:20:42
    INDEX 01 27:22:42
    TRACK 08 AUDIO
    TITLE “Alone Tonight”
    PERFORMER “Genesis”
    INDEX 00 31:05:05
    INDEX 01 31:07:70
    TRACK 09 AUDIO
    TITLE “Cul-De-Sac”
    PERFORMER “Genesis”
    INDEX 00 35:00:65
    INDEX 01 35:04:65
    TRACK 10 AUDIO
    TITLE “Please Don’t Ask”
    PERFORMER “Genesis”
    INDEX 00 40:08:62
    INDEX 01 40:10:67
    TRACK 11 AUDIO
    TITLE “Duke’s Travels”
    PERFORMER “Genesis”
    INDEX 00 44:12:45
    INDEX 01 44:14:50
    TRACK 12 AUDIO
    TITLE “Duke’s End”
    PERFORMER “Genesis”
    INDEX 01 52:54:57

    Author: Chaos

    Leave a Reply

    Your email address will not be published. Required fields are marked *

    This site uses Akismet to reduce spam. Learn how your comment data is processed.