Genesis – Calling All Stations (Japanese Edition)




  • [Total: 0    Average: 0/5]

    Artist: Genesis
    Year: 1997
    Genre: Rock
    Notes: Discogs
    Add. Notes: Japanese Edition
    Encoder: FLAC
    Bitrate: ~800 kBit/s (44.1 kHz/16 Bit/s)
    Size: 574,76 MB
    Password: “slam” (without ” “)


    http://www.share-online.biz/dl/80X98JQPTS1 http://www.share-online.biz/dl/CXV98JQP6SO http://www.share-online.biz/dl/7QV98JQPFL
    https://rapidgator.net/file/15d2c436f26f47f95d25284d7f9693bd https://rapidgator.net/file/187f8af30ca31edb0fd2b63ccba30875 https://rapidgator.net/file/ffa63a32a0ef02e88f732f57dec68f74
    https://ayefiles.com/xppqwh9lzuvq/G1997-CalAllStaVJCP-25335-Jap.part1.rar.html https://ayefiles.com/o390p02q5r1l/G1997-CalAllStaVJCP-25335-Jap.part2.rar.html https://ayefiles.com/9cghmnn3sen6/G1997-CalAllStaVJCP-25335-Jap.part3.rar.html
    Onlinestatus: Share-online.biz Rapidgator.net AyeFiles.com

    Tracklist:

    1 	Calling All Stations 	
    2 	Congo 	
    3 	Shipwrecked 	
    4 	Alien Afternoon 	
    5 	Not About Us 	
    6 	If That's What You Need 	
    7 	The Dividing Line 	
    8 	Uncertain Weather 	
    9 	Small Talk 	
    10 	There Must Be Some Other Way 	
    11 	One Man's Fool
    

    EAC-Log, CUE-Sheed & NFO:

    Click to open spoiler
    Exact Audio Copy V1.0 beta 3 from 29. August 2011

    EAC extraction logfile from 18. January 2014, 23:21

    Genesis / Calling All Stations (VJCP-25335)

    Used drive : PLEXTOR DVDR PX-891SA Adapter: 3 ID: 0

    Read mode : Secure
    Utilize accurate stream : Yes
    Defeat audio cache : Yes
    Make use of C2 pointers : No

    Read offset correction : 6
    Overread into Lead-In and Lead-Out : No
    Fill up missing offset samples with silence : Yes
    Delete leading and trailing silent blocks : No
    Null samples used in CRC calculations : Yes
    Used interface : Native Win32 interface for Win NT & 2000

    Used output format : User Defined Encoder
    Selected bitrate : 1024 kBit/s
    Quality : High
    Add ID3 tag : No
    Command line compressor : C:\Program Files\Exact Audio Copy\Flac\flac.exe
    Additional command line options : -V -8 -T “Genre=%genre%” -T “Artist=%artist%” -T “Title=%title%” -T “Album=%albumtitle%” -T “Date=%year%” -T “Tracknumber=%tracknr%” -T “Comment=%comment%” %source%

    TOC of the extracted CD

    Track | Start | Length | Start sector | End sector
    ———————————————————
    1 | 0:00.00 | 5:43.72 | 0 | 25796
    2 | 5:43.72 | 4:52.30 | 25797 | 47726
    3 | 10:36.27 | 4:23.70 | 47727 | 67521
    4 | 15:00.22 | 7:53.45 | 67522 | 103041
    5 | 22:53.67 | 4:39.30 | 103042 | 123996
    6 | 27:33.22 | 5:12.30 | 123997 | 147426
    7 | 32:45.52 | 7:44.60 | 147427 | 182286
    8 | 40:30.37 | 5:29.60 | 182287 | 207021
    9 | 46:00.22 | 5:02.00 | 207022 | 229671
    10 | 51:02.22 | 7:55.23 | 229672 | 265319
    11 | 58:57.45 | 8:46.00 | 265320 | 304769

    Range status and errors

    Selected range

    Filename H:\dafnaplus\Genesis\JP\Genesis – Calling All Stations\Genesis – Calling All Stations (VJCP-25335).wav

    Peak level 100.0 %
    Extraction speed 10.1 X
    Range quality 100.0 %
    Test CRC 7C05A070
    Copy CRC 7C05A070
    Copy OK

    No errors occurred

    AccurateRip summary

    Track 1 accurately ripped (confidence 4) [39434BFC] (AR v2)
    Track 2 accurately ripped (confidence 4) [D1629BD5] (AR v2)
    Track 3 accurately ripped (confidence 4) [FD467834] (AR v2)
    Track 4 accurately ripped (confidence 4) [531FBB87] (AR v2)
    Track 5 accurately ripped (confidence 4) [0D19530C] (AR v2)
    Track 6 accurately ripped (confidence 4) [C082393A] (AR v2)
    Track 7 accurately ripped (confidence 4) [CB15A4A9] (AR v2)
    Track 8 accurately ripped (confidence 4) [B318E26E] (AR v2)
    Track 9 accurately ripped (confidence 4) [6AEB614F] (AR v2)
    Track 10 accurately ripped (confidence 4) [880CFCED] (AR v2)
    Track 11 accurately ripped (confidence 4) [86D3FCA9] (AR v2)

    All tracks accurately ripped

    End of status report

    ==== Log checksum F8095599AA641921CE0953A23D2D21A8F7815EA17679E300BBD7B31CEA40F2B8 ====

    REM GENRE “Progressive Rock”
    REM DATE 1997
    REM DISCID 9F0FDF0B
    REM COMMENT “ExactAudioCopy v1.0b3”
    PERFORMER “Genesis”
    TITLE “Calling All Stations (VJCP-25335)”
    FILE “Genesis – Calling All Stations (VJCP-25335).flac” WAVE
    TRACK 01 AUDIO
    TITLE “Calling All Stations”
    PERFORMER “Genesis”
    INDEX 01 00:00:00
    TRACK 02 AUDIO
    TITLE “Congo”
    PERFORMER “Genesis”
    INDEX 01 05:43:72
    TRACK 03 AUDIO
    TITLE “Shipwrecked”
    PERFORMER “Genesis”
    INDEX 00 10:34:50
    INDEX 01 10:36:27
    TRACK 04 AUDIO
    TITLE “Alien Afternoon”
    PERFORMER “Genesis”
    INDEX 00 14:59:25
    INDEX 01 15:00:22
    TRACK 05 AUDIO
    TITLE “Not About Us”
    PERFORMER “Genesis”
    INDEX 00 22:51:22
    INDEX 01 22:53:67
    TRACK 06 AUDIO
    TITLE “If That’s What You Need”
    PERFORMER “Genesis”
    INDEX 00 27:31:55
    INDEX 01 27:33:22
    TRACK 07 AUDIO
    TITLE “The Dividing Line”
    PERFORMER “Genesis”
    INDEX 00 32:45:25
    INDEX 01 32:45:52
    TRACK 08 AUDIO
    TITLE “Uncertain Weather”
    PERFORMER “Genesis”
    INDEX 00 40:30:10
    INDEX 01 40:30:37
    TRACK 09 AUDIO
    TITLE “Small Talk”
    PERFORMER “Genesis”
    INDEX 00 45:59:30
    INDEX 01 46:00:22
    TRACK 10 AUDIO
    TITLE “There Must Be Some Other Way”
    PERFORMER “Genesis”
    INDEX 00 51:02:07
    INDEX 01 51:02:22
    TRACK 11 AUDIO
    TITLE “One Man’s Fool”
    PERFORMER “Genesis”
    INDEX 00 58:55:72
    INDEX 01 58:57:45

    Author: Chaos

    Leave a Reply

    Your email address will not be published. Required fields are marked *

    This site uses Akismet to reduce spam. Learn how your comment data is processed.