Genesis – …and then there were three… (Reissue)




[Total: 0    Average: 0/5]

Artist: Genesis
Year: 1978/1991
Genre: Rock
Notes: Discogs
Add. Notes: Reissue
Encoder: FLAC
Bitrate: ~800 kBit/s (44.1 kHz/16 Bit/s)
Size: 386 MB
Password: “slam” (without ” “)


http://www.share-online.biz/dl/LEK3GDQP1FA0
http://www.share-online.biz/dl/XJK3GDQP2EH
https://rapidgator.net/file/8fc14a4081ff93c88e6d3ae633195e38
https://rapidgator.net/file/cf6aa6d1c528229ef03f395af622778c
https://ayefiles.com/nslbu79fqs2r/G1978-AndTheTheWer-CDSCD4010-91.part1.rar.html
https://ayefiles.com/adft7fq0hzch/G1978-AndTheTheWer-CDSCD4010-91.part2.rar.html

Onlinestatus: Share-online.biz Rapidgator.net AyeFiles.com

Tracklist:

1 - Down And Out - 5:25
2 - Undertow - 4:45
3 - Ballad Of Big - 4:43
4 - Snowbound - 4:29
5 - Burning Rope - 7:07
6 - Deep In The Motherlode - 5:14
7 - Many Too Many - 3:29
8 - Scenes From A Night's Dream - 
3:29
9 - Say It's Alright Joe - 4:18
10 - The Lady Lies - 6:00
11 - Follow You Follow Me - 3:55

EAC-Log, CUE-Sheed & NFO:

Click to open spoiler
Exact Audio Copy V1.0 beta 1 from 15. November 2010

EAC extraction logfile from 4. February 2011, 12:00

Genesis / …and then there were three… (CDSCD 4010)

Used drive : TEAC DV-W516GDM Adapter: 0 ID: 1

Read mode : Secure
Utilize accurate stream : Yes
Defeat audio cache : Yes
Make use of C2 pointers : No

Read offset correction : 6
Overread into Lead-In and Lead-Out : No
Fill up missing offset samples with silence : Yes
Delete leading and trailing silent blocks : No
Null samples used in CRC calculations : Yes
Used interface : Native Win32 interface for Win NT & 2000

Used output format : User Defined Encoder
Selected bitrate : 896 kBit/s
Quality : High
Add ID3 tag : No
Command line compressor : C:\Program Files\Exact Audio Copy 1.0\Flac\flac.exe
Additional command line options : -8 -V %s

TOC of the extracted CD

Track | Start | Length | Start sector | End sector
———————————————————
1 | 0:00.00 | 5:26.12 | 0 | 24461
2 | 5:26.12 | 4:46.08 | 24462 | 45919
3 | 10:12.20 | 4:50.22 | 45920 | 67691
4 | 15:02.42 | 4:30.68 | 67692 | 88009
5 | 19:33.35 | 7:07.55 | 88010 | 120089
6 | 26:41.15 | 5:14.62 | 120090 | 143701
7 | 31:56.02 | 3:31.30 | 143702 | 159556
8 | 35:27.32 | 3:29.43 | 159557 | 175274
9 | 38:57.00 | 4:20.50 | 175275 | 194824
10 | 43:17.50 | 6:07.22 | 194825 | 222371
11 | 49:24.72 | 3:58.50 | 222372 | 240271

Range status and errors

Selected range

Filename C:\Olaf der Weisse\Genesis . 1978 . …and then there were three… (CDSCD 4010)\Genesis – …and then there were three… (CDSCD 4010).wav

Peak level 100.0 %
Extraction speed 0.3 X
Range quality 100.0 %
Test CRC 06071027
Copy CRC 06071027
Copy OK

No errors occurred

AccurateRip summary

Track 1 accurately ripped (confidence 5) [3EBA6511]
Track 2 accurately ripped (confidence 5) [B1307145]
Track 3 accurately ripped (confidence 5) [EA2BB7C0]
Track 4 accurately ripped (confidence 5) [6ED5C529]
Track 5 accurately ripped (confidence 5) [BE07C9E2]
Track 6 accurately ripped (confidence 5) [C66F3866]
Track 7 accurately ripped (confidence 5) [F82F5383]
Track 8 accurately ripped (confidence 5) [4CCDFE2C]
Track 9 accurately ripped (confidence 5) [ABE86138]
Track 10 accurately ripped (confidence 5) [6EFCDD39]
Track 11 accurately ripped (confidence 5) [B81F3D39]

All tracks accurately ripped

End of status report

==== Log checksum DF10095FEF6D369C0F6F9586238639EB99C2E1510102C374893FD88761F32E03 ====

REM GENRE “Progressive Rock”
REM DATE 1978
REM DISCID A10C830B
REM COMMENT “ExactAudioCopy v1.0b1”
PERFORMER “Genesis”
TITLE “…and then there were three… (CDSCD 4010)”
FILE “Genesis – …and then there were three… (CDSCD 4010).flac” WAVE
TRACK 01 AUDIO
TITLE “Down and out”
PERFORMER “Genesis”
INDEX 01 00:00:00
TRACK 02 AUDIO
TITLE “Undertow”
PERFORMER “Genesis”
INDEX 00 05:26:10
INDEX 01 05:26:12
TRACK 03 AUDIO
TITLE “Ballad of big”
PERFORMER “Genesis”
INDEX 00 10:11:07
INDEX 01 10:12:20
TRACK 04 AUDIO
TITLE “Snowbound”
PERFORMER “Genesis”
INDEX 00 15:01:35
INDEX 01 15:02:42
TRACK 05 AUDIO
TITLE “Burning rope”
PERFORMER “Genesis”
INDEX 00 19:32:05
INDEX 01 19:33:35
TRACK 06 AUDIO
TITLE “Deep in motherlode”
PERFORMER “Genesis”
INDEX 00 26:41:12
INDEX 01 26:41:15
TRACK 07 AUDIO
TITLE “Many too many”
PERFORMER “Genesis”
INDEX 00 31:56:00
INDEX 01 31:56:02
TRACK 08 AUDIO
TITLE “Scenes from a night’s dream”
PERFORMER “Genesis”
INDEX 00 35:26:20
INDEX 01 35:27:32
TRACK 09 AUDIO
TITLE “Say it’s alright Joe”
PERFORMER “Genesis”
INDEX 00 38:56:72
INDEX 01 38:57:00
TRACK 10 AUDIO
TITLE “The lady lies”
PERFORMER “Genesis”
INDEX 00 43:17:47
INDEX 01 43:17:50
TRACK 11 AUDIO
TITLE “Follow you follow me”
PERFORMER “Genesis”
INDEX 00 49:23:55
INDEX 01 49:24:72

Spread the Download

Leave a Reply

Your email address will not be published. Required fields are marked *

Enter the text from the image below
 

This site uses Akismet to reduce spam. Learn how your comment data is processed.