Genesis – And Then There Were Three (Japanese Edition)




[Total: 0    Average: 0/5]

Artist: Genesis
Year: 1978/1988
Genre: Rock
Notes: Discogs
Add. Notes: Japanese Edition
Encoder: FLAC
Bitrate: (44.1 kHz/16 Bit/s)
Size: 397,97 MB
Password: – not required –


Crypted via FileCrypt.cc:

.

Crypted via Relink.to:

Tracklist:

1 - Down And Out - 5:25
2 - Undertow - 4:45
3 - Ballad Of Big - 4:43
4 - Snowbound - 4:29
5 - Burning Rope - 7:07
6 - Deep In The Motherlode - 5:14
7 - Many Too Many - 3:29
8 - Scenes From A Night's Dream - 3:29
9 - Say It Alright Joe - 4:18
10 - The Lady Lies - 6:00
11 - Follow You Follow Me - 3:55

EAC-Log, CUE-Sheed & NFO:

Click to open spoiler
Exact Audio Copy V0.99 prebeta 5 from 4. May 2009

EAC extraction logfile from 29. November 2011, 20:37

Genesis / And Then There Were Three.VJD-28089.Japan

Used drive : PLEXTOR CD-R PREMIUM2 Adapter: 0 ID: 1

Read mode : Secure
Utilize accurate stream : Yes
Defeat audio cache : Yes
Make use of C2 pointers : No

Read offset correction : 30
Overread into Lead-In and Lead-Out : No
Fill up missing offset samples with silence : Yes
Delete leading and trailing silent blocks : No
Null samples used in CRC calculations : Yes
Used interface : Installed external ASPI interface

Used output format : User Defined Encoder
Selected bitrate : 768 kBit/s
Quality : High
Add ID3 tag : No
Command line compressor : C:\Program Files\Exact Audio Copy\FLAC\FLAC.EXE
Additional command line options : -6 -V -T “ARTIST=%a” -T “TITLE=%t” -T “ALBUM=%g” -T “DATE=%y” -T “TRACKNUMBER=%n” -T “GENRE=%m” -T “COMMENT=%e” %s -o %d

TOC of the extracted CD

Track | Start | Length | Start sector | End sector
———————————————————
1 | 0:00.37 | 5:27.25 | 37 | 24586
2 | 5:27.62 | 4:47.10 | 24587 | 46121
3 | 10:14.72 | 4:50.70 | 46122 | 67941
4 | 15:05.67 | 4:31.30 | 67942 | 88296
5 | 19:37.22 | 7:09.33 | 88297 | 120504
6 | 26:46.55 | 5:15.52 | 120505 | 144181
7 | 32:02.32 | 3:31.70 | 144182 | 160076
8 | 35:34.27 | 3:30.10 | 160077 | 175836
9 | 39:04.37 | 4:21.28 | 175837 | 195439
10 | 43:25.65 | 6:08.15 | 195440 | 223054
11 | 49:34.05 | 4:01.32 | 223055 | 241161

Range status and errors

Selected range

Filename H:\Temp\Genesis\…And Then There Were Three…1978.VJD-28089.Virgin.Japan\Genesis – And Then There Were Three.VJD-28089.Japan.wav

Peak level 94.1 %
Range quality 100.0 %
Test CRC 434F5F0D
Copy CRC 434F5F0D
Copy OK

No errors occurred

AccurateRip summary

Track 1 not present in database
Track 2 not present in database
Track 3 not present in database
Track 4 not present in database
Track 5 not present in database
Track 6 not present in database
Track 7 not present in database
Track 8 not present in database
Track 9 not present in database
Track 10 not present in database
Track 11 not present in database

None of the tracks are present in the AccurateRip database

End of status report

REM GENRE “Progressive Rock”
REM DATE 1978
REM DISCID A00C8F0B
REM COMMENT “ExactAudioCopy v0.99pb5”
PERFORMER “Genesis”
TITLE “And Then There Were Three.VJD-28089.Japan”
FILE “Genesis – And Then There Were Three.VJD-28089.Japan.flac” WAVE
TRACK 01 AUDIO
TITLE “Down And Out”
PERFORMER “Genesis”
INDEX 00 00:00:00
INDEX 01 00:00:37
TRACK 02 AUDIO
TITLE “Undertow”
PERFORMER “Genesis”
INDEX 01 05:27:62
TRACK 03 AUDIO
TITLE “Ballad Of Big”
PERFORMER “Genesis”
INDEX 00 10:14:71
INDEX 01 10:14:72
TRACK 04 AUDIO
TITLE “Snowbound”
PERFORMER “Genesis”
INDEX 00 15:05:65
INDEX 01 15:05:67
TRACK 05 AUDIO
TITLE “Burning Rope”
PERFORMER “Genesis”
INDEX 01 19:37:22
TRACK 06 AUDIO
TITLE “Deep In The Motherlode”
PERFORMER “Genesis”
INDEX 00 26:46:53
INDEX 01 26:46:55
TRACK 07 AUDIO
TITLE “Many Too Many”
PERFORMER “Genesis”
INDEX 01 32:02:32
TRACK 08 AUDIO
TITLE “Scenes From A Night’s Dream”
PERFORMER “Genesis”
INDEX 01 35:34:27
TRACK 09 AUDIO
TITLE “Say It’s Alright Joe”
PERFORMER “Genesis”
INDEX 00 39:04:36
INDEX 01 39:04:37
TRACK 10 AUDIO
TITLE “The Lady Lies”
PERFORMER “Genesis”
INDEX 00 43:25:63
INDEX 01 43:25:65
TRACK 11 AUDIO
TITLE “Follow You Follow Me”
PERFORMER “Genesis”
INDEX 00 49:34:04
INDEX 01 49:34:05

Spread the Download

Leave a Reply

Your email address will not be published. Required fields are marked *

Enter the text from the image below
 

This site uses Akismet to reduce spam. Learn how your comment data is processed.