Genesis – And the Word Was… (Reissue)




[Total: 0    Average: 0/5]

Artist: Genesis
Year: 1969/1987
Genre: Rock
Notes: Discogs
Add. Notes: Reissue
Cover incl.: Yes
Encoder: FLAC
Bitrate: ~800 kBit/s (44.1 kHz/16 Bit/s)
Log & Cue incl.: Yes
Size: 332,03 MB
Password: “slam” (without ” “)


All Downloads/Hosters are compatible

Download 1
Share-online.biz
Rapidgator.net
KatFile.com
UploadRar.com
Download 2
Share-online.biz
Rapidgator.net
KatFile.com
UploadRar.com

Tracklist:

1 - The Silent Sun - 2:17
2 - That's Me - 2:41
3 - Where The Sour Turns To Sweet - 3:16
4 - In The Beginning - 3:44
5 - Fireside Song - 4:58
6 - The Serpent - 3:58
7 - Am I Very Wrong? - 3:31
8 - In The Wilderness - 3:39
9 - The Conqueror - 3:22
10 - In Hiding - 2:38
11 - One Day - 3:21
12 - Window - 3:33
13 - In Limbo - 3:30
14 - Silent Sun - 2:13
15 - A Place To Call My Own - 1:59
16 - A Winter's Tale - 3:31
17 - One-Eyed Hound - 2:36

EAC-Log, CUE-Sheed & NFO:

Click to open spoiler
Exact Audio Copy V1.0 beta 1 from 15. November 2010

EAC extraction logfile from 4. February 2011, 18:52

Genesis / And the Word Was… (820 496-2)

Used drive : TEAC DV-W516GDM Adapter: 0 ID: 1

Read mode : Secure
Utilize accurate stream : Yes
Defeat audio cache : Yes
Make use of C2 pointers : No

Read offset correction : 6
Overread into Lead-In and Lead-Out : No
Fill up missing offset samples with silence : Yes
Delete leading and trailing silent blocks : No
Null samples used in CRC calculations : Yes
Used interface : Native Win32 interface for Win NT & 2000

Used output format : User Defined Encoder
Selected bitrate : 896 kBit/s
Quality : High
Add ID3 tag : No
Command line compressor : C:\Program Files\Exact Audio Copy 1.0\Flac\flac.exe
Additional command line options : -8 -V %s

TOC of the extracted CD

Track | Start | Length | Start sector | End sector
———————————————————
1 | 0:00.33 | 2:17.25 | 33 | 10332
2 | 2:17.58 | 2:41.00 | 10333 | 22407
3 | 4:58.58 | 3:16.00 | 22408 | 37107
4 | 8:14.58 | 3:44.25 | 37108 | 53932
5 | 11:59.08 | 4:58.42 | 53933 | 76324
6 | 16:57.50 | 3:58.30 | 76325 | 94204
7 | 20:56.05 | 3:31.53 | 94205 | 110082
8 | 24:27.58 | 3:39.25 | 110083 | 126532
9 | 28:07.08 | 3:22.02 | 126533 | 141684
10 | 31:29.10 | 2:38.00 | 141685 | 153534
11 | 34:07.10 | 3:21.40 | 153535 | 168649
12 | 37:28.50 | 3:33.60 | 168650 | 184684
13 | 41:02.35 | 3:30.13 | 184685 | 200447
14 | 44:32.48 | 2:13.42 | 200448 | 210464
15 | 46:46.15 | 1:59.53 | 210465 | 219442
16 | 48:45.68 | 3:31.52 | 219443 | 235319
17 | 52:17.45 | 2:36.13 | 235320 | 247032

Range status and errors

Selected range

Filename C:\Olaf der Weisse\Genesis . 1987 . And the Word Was… (820 496-2)\Genesis – And the Word Was… (820 496-2).wav

Peak level 96.5 %
Extraction speed 0.0 X
Range quality 100.0 %
Test CRC 87E6CD91
Copy CRC 87E6CD91
Copy OK

No errors occurred

AccurateRip summary

Track 1 accurately ripped (confidence 43) [DA5F8995]
Track 2 accurately ripped (confidence 43) [D30A96FD]
Track 3 accurately ripped (confidence 41) [89599DA6]
Track 4 accurately ripped (confidence 41) [16C02897]
Track 5 accurately ripped (confidence 41) [330D9773]
Track 6 accurately ripped (confidence 43) [C3023E81]
Track 7 accurately ripped (confidence 43) [CE91C8F8]
Track 8 accurately ripped (confidence 42) [5FDAB1A3]
Track 9 accurately ripped (confidence 42) [11612BD8]
Track 10 accurately ripped (confidence 42) [178EE0B5]
Track 11 accurately ripped (confidence 40) [3D3B5A1B]
Track 12 accurately ripped (confidence 42) [4299C5C7]
Track 13 accurately ripped (confidence 42) [CE72590E]
Track 14 accurately ripped (confidence 41) [5E5FBB8D]
Track 15 accurately ripped (confidence 42) [12ABCF7A]
Track 16 accurately ripped (confidence 42) [B2F1DB79]
Track 17 accurately ripped (confidence 42) [CD70C165]

All tracks accurately ripped

End of status report

==== Log checksum EE2C74767EBFEA3EE92D9911E9B40BD2DE84F605AE7E3F64A99420ED26648816 ====

REM GENRE Rock
REM DATE 1987
REM DISCID FA0CDD11
REM COMMENT “ExactAudioCopy v1.0b1”
PERFORMER “Genesis”
TITLE “And the Word Was… (820 496-2)”
FILE “Genesis – And the Word Was… (820 496-2).flac” WAVE
TRACK 01 AUDIO
TITLE “The Silent Sun”
PERFORMER “Genesis”
INDEX 00 00:00:00
INDEX 01 00:00:33
TRACK 02 AUDIO
TITLE “That’s Me”
PERFORMER “Genesis”
INDEX 00 02:16:20
INDEX 01 02:17:58
TRACK 03 AUDIO
TITLE “Where the Sour Turns to Sweet”
PERFORMER “Genesis”
INDEX 00 04:58:08
INDEX 01 04:58:58
TRACK 04 AUDIO
TITLE “In the Beginning”
PERFORMER “Genesis”
INDEX 01 08:14:58
TRACK 05 AUDIO
TITLE “Fireside Song”
PERFORMER “Genesis”
INDEX 01 11:59:08
TRACK 06 AUDIO
TITLE “The Serpent”
PERFORMER “Genesis”
INDEX 01 16:57:50
TRACK 07 AUDIO
TITLE “Am I very Wrong?”
PERFORMER “Genesis”
INDEX 01 20:56:05
TRACK 08 AUDIO
TITLE “In the Wilderness”
PERFORMER “Genesis”
INDEX 01 24:27:58
TRACK 09 AUDIO
TITLE “The Conqueror”
PERFORMER “Genesis”
INDEX 01 28:07:08
TRACK 10 AUDIO
TITLE “In Hiding”
PERFORMER “Genesis”
INDEX 01 31:29:10
TRACK 11 AUDIO
TITLE “One Day”
PERFORMER “Genesis”
INDEX 01 34:07:10
TRACK 12 AUDIO
TITLE “Window”
PERFORMER “Genesis”
INDEX 01 37:28:50
TRACK 13 AUDIO
TITLE “In Limbo”
PERFORMER “Genesis”
INDEX 01 41:02:35
TRACK 14 AUDIO
TITLE “Silent Sun”
PERFORMER “Genesis”
INDEX 01 44:32:48
TRACK 15 AUDIO
TITLE “A Place to Call My Own”
PERFORMER “Genesis”
INDEX 01 46:46:15
TRACK 16 AUDIO
TITLE “A Winter’s Tale”
PERFORMER “Genesis”
INDEX 01 48:45:68
TRACK 17 AUDIO
TITLE “One-Eyed Hound”
PERFORMER “Genesis”
INDEX 00 52:16:08
INDEX 01 52:17:45


Spread the Download

Leave a Reply

Your email address will not be published. Required fields are marked *

Enter the text from the image below
 

This site uses Akismet to reduce spam. Learn how your comment data is processed.