Genesis – Abacab (Japanese Edition)




[Total: 0    Average: 0/5]

Artist: Genesis
Year: 1981/1989
Genre: Rock
Notes: Discogs
Add. Notes: Japanese Edition
Encoder: FLAC
Bitrate: ~800 kBit/s (44.1 kHz/16 Bit/s)
Size: 311,99 MB
Password: “slam” (without ” “)


Crypted via FileCrypt.cc:

.

Crypted via Relink.to:

Tracklist:

1 - Abacab - 7:02
2 - No Reply At All - 4:40
3 - Me And Sarah Jane - 6:01
4 - Keep It Dark - 4:35
5 - Dodo/Lurker - 7:30
6 - Whodunnit? - 3:23
7 - Man On The Corner - 4:27
8 - Like It Or Not - 4:59
9 - Another Record - 4:31

EAC-Log, CUE-Sheed & NFO:

Click to open spoiler
Exact Audio Copy V0.99 prebeta 5 from 4. May 2009

EAC extraction logfile from 28. November 2011, 0:04

Genesis / Abacab.23PD-117.Japan

Used drive : PLEXTOR CD-R PREMIUM2 Adapter: 0 ID: 1

Read mode : Secure
Utilize accurate stream : Yes
Defeat audio cache : Yes
Make use of C2 pointers : No

Read offset correction : 30
Overread into Lead-In and Lead-Out : No
Fill up missing offset samples with silence : Yes
Delete leading and trailing silent blocks : No
Null samples used in CRC calculations : Yes
Used interface : Installed external ASPI interface

Used output format : User Defined Encoder
Selected bitrate : 768 kBit/s
Quality : High
Add ID3 tag : No
Command line compressor : C:\Program Files\Exact Audio Copy\FLAC\FLAC.EXE
Additional command line options : -6 -V -T “ARTIST=%a” -T “TITLE=%t” -T “ALBUM=%g” -T “DATE=%y” -T “TRACKNUMBER=%n” -T “GENRE=%m” -T “COMMENT=%e” %s -o %d

TOC of the extracted CD

Track | Start | Length | Start sector | End sector
———————————————————
1 | 0:00.37 | 7:04.20 | 37 | 31856
2 | 7:04.57 | 4:40.38 | 31857 | 52894
3 | 11:45.20 | 6:03.15 | 52895 | 80134
4 | 17:48.35 | 4:37.00 | 80135 | 100909
5 | 22:25.35 | 7:31.40 | 100910 | 134774
6 | 29:57.00 | 3:24.40 | 134775 | 150114
7 | 33:21.40 | 4:27.40 | 150115 | 170179
8 | 37:49.05 | 4:58.65 | 170180 | 192594
9 | 42:47.70 | 4:30.62 | 192595 | 212906

Range status and errors

Selected range

Filename H:\Temp\Genesis\Abacab.1981.23PD-117.Vertigo.Japan\Genesis – Abacab.23PD-117.Japan.wav

Peak level 92.2 %
Range quality 100.0 %
Test CRC 58DF6A6C
Copy CRC 58DF6A6C
Copy OK

No errors occurred

AccurateRip summary

Track 1 accurately ripped (confidence 1) [44739863]
Track 2 accurately ripped (confidence 1) [63996F57]
Track 3 accurately ripped (confidence 1) [FE069CAB]
Track 4 accurately ripped (confidence 1) [CA0CE290]
Track 5 accurately ripped (confidence 1) [1A217334]
Track 6 accurately ripped (confidence 1) [FD93F13A]
Track 7 accurately ripped (confidence 1) [13DE4D95]
Track 8 accurately ripped (confidence 1) [40BBD9D5]
Track 9 accurately ripped (confidence 1) [2430F937]

All tracks accurately ripped

End of status report

REM GENRE “Progressive Rock”
REM DATE 1981
REM DISCID 740B1609
REM COMMENT “ExactAudioCopy v0.99pb5”
PERFORMER “Genesis”
TITLE “Abacab.23PD-117.Japan”
FILE “Genesis – Abacab.23PD-117.Japan.flac” WAVE
TRACK 01 AUDIO
TITLE “Abacab”
PERFORMER “Genesis”
INDEX 00 00:00:00
INDEX 01 00:00:37
TRACK 02 AUDIO
TITLE “No Reply at All”
PERFORMER “Genesis”
INDEX 00 07:02:72
INDEX 01 07:04:57
TRACK 03 AUDIO
TITLE “Me and Sarah Jane”
PERFORMER “Genesis”
INDEX 01 11:45:20
TRACK 04 AUDIO
TITLE “Keep it Dark”
PERFORMER “Genesis”
INDEX 00 17:46:32
INDEX 01 17:48:35
TRACK 05 AUDIO
TITLE “DODO/Lurker”
PERFORMER “Genesis”
INDEX 00 22:23:22
INDEX 01 22:25:35
TRACK 06 AUDIO
TITLE “Who Dunnit?”
PERFORMER “Genesis”
INDEX 00 29:54:62
INDEX 01 29:57:00
TRACK 07 AUDIO
TITLE “Man Ont The Corner”
PERFORMER “Genesis”
INDEX 00 33:19:60
INDEX 01 33:21:40
TRACK 08 AUDIO
TITLE “Like it or Not”
PERFORMER “Genesis”
INDEX 01 37:49:05
TRACK 09 AUDIO
TITLE “Another Record”
PERFORMER “Genesis”
INDEX 00 42:47:62
INDEX 01 42:47:70

Spread the Download

Leave a Reply

Your email address will not be published. Required fields are marked *

Enter the text from the image below
 

This site uses Akismet to reduce spam. Learn how your comment data is processed.