Eagles – The Long Run (Remastered)




[Total: 0    Average: 0/5]

Artist: Eagles
Year: 1979/2002
Genre: Rock
Notes: Discogs
Add. Notes: Remastered
Cover incl.: Yes
Encoder: FLAC
Bitrate: ~700 kBit/s (44.1 kHz/16 Bit/s)
Log & Cue incl.: Yes
Size: 335,4 MB
Password: “slam” (without ” “)


All Downloads/Hosters are compatible

Download 1
Share-online.biz
Rapidgator.net
KatFile.com
UploadRar.com
Download 2
Share-online.biz
Rapidgator.net
KatFile.com
UploadRar.com

Tracklist:

1 - The Long Run - 3:42
2 - I Can't Tell You Why - 4:56
3 - In The City - 3:46
4 - The Disco Strangler - 2:46
5 - King Of Hollywood - 6:28
6 - Heartache Tonight - 4:26
7 - Those Shoes - 4:56
8 - Teenage Jail - 3:44
9 - The Greeks Don't Want No Freaks - 2:20
10 - The Sad Cafe - 5:35

EAC-Log, CUE-Sheed & NFO:

Click to open spoiler
Exact Audio Copy V1.1 from 23. June 2015

EAC extraction logfile from 10. June 2016, 15:34

Eagles / The Long Run (7559-60560-2)

Used drive : HL-DT-STDVDRAM GE20NU11 Adapter: 1 ID: 0

Read mode : Secure
Utilize accurate stream : Yes
Defeat audio cache : Yes
Make use of C2 pointers : No

Read offset correction : 667
Overread into Lead-In and Lead-Out : No
Fill up missing offset samples with silence : Yes
Delete leading and trailing silent blocks : No
Null samples used in CRC calculations : Yes
Used interface : Native Win32 interface for Win NT & 2000

Used output format : User Defined Encoder
Selected bitrate : 896 kBit/s
Quality : High
Add ID3 tag : No
Command line compressor : C:\Program Files\EAC 3\Exact Audio Copy\Flac\flac.exe
Additional command line options : -V -8 %source%

TOC of the extracted CD

Track | Start | Length | Start sector | End sector
———————————————————
1 | 0:00.00 | 3:44.38 | 0 | 16837
2 | 3:44.38 | 4:55.40 | 16838 | 39002
3 | 8:40.03 | 3:45.35 | 39003 | 55912
4 | 12:25.38 | 2:43.55 | 55913 | 68192
5 | 15:09.18 | 6:27.67 | 68193 | 97284
6 | 21:37.10 | 4:25.03 | 97285 | 117162
7 | 26:02.13 | 4:55.65 | 117163 | 139352
8 | 30:58.03 | 3:44.30 | 139353 | 156182
9 | 34:42.33 | 2:20.42 | 156183 | 166724
10 | 37:03.00 | 5:32.20 | 166725 | 191644

Range status and errors

Selected range

Filename Z:\OdW\Eagles\1979 – The Long Run (7559-60560-2)\Eagles – The Long Run (7559-60560-2).wav

Peak level 72.4 %
Extraction speed 6.9 X
Range quality 100.0 %
Test CRC 9FAA14F0
Copy CRC 9FAA14F0
Copy OK

No errors occurred

AccurateRip summary

Track 1 accurately ripped (confidence 37) [FBDFF4EF] (AR v2)
Track 2 accurately ripped (confidence 37) [D39BDDA8] (AR v2)
Track 3 accurately ripped (confidence 36) [598AE331] (AR v2)
Track 4 accurately ripped (confidence 38) [DBD9E167] (AR v2)
Track 5 accurately ripped (confidence 38) [DD444682] (AR v2)
Track 6 accurately ripped (confidence 38) [E31A0D70] (AR v2)
Track 7 accurately ripped (confidence 37) [8487FA44] (AR v2)
Track 8 accurately ripped (confidence 39) [18C6C682] (AR v2)
Track 9 accurately ripped (confidence 38) [439EAAB3] (AR v2)
Track 10 accurately ripped (confidence 37) [6BF6FB2C] (AR v2)

All tracks accurately ripped

End of status report

—- CUETools DB Plugin V2.1.6

[CTDB TOCID: YmnuYSyJWDbNI8Ciz.zKreOVaUM-] found
Submit result: YmnuYSyJWDbNI8Ciz.zKreOVaUM- has been confirmed
Track | CTDB Status
1 | (89/93) Accurately ripped
2 | (89/93) Accurately ripped
3 | (90/93) Accurately ripped
4 | (90/93) Accurately ripped
5 | (91/93) Accurately ripped
6 | (93/93) Accurately ripped
7 | (91/93) Accurately ripped
8 | (92/93) Accurately ripped
9 | (92/93) Accurately ripped
10 | (91/93) Accurately ripped

==== Log checksum FF241058236DE6168AB85DAAB30D4A8D0B394CC7554DDA9A1EDD54DD8F6AE263 ====

REM GENRE Rock
REM DATE 1979
REM DISCID 7F09FB0A
REM COMMENT “ExactAudioCopy v1.1”
PERFORMER “Eagles”
TITLE “The Long Run (7559-60560-2)”
FILE “Eagles – The Long Run (7559-60560-2).flac” WAVE
TRACK 01 AUDIO
TITLE “The Long Run”
PERFORMER “Eagles”
INDEX 01 00:00:00
TRACK 02 AUDIO
TITLE “I Can’t Tell You Why”
PERFORMER “Eagles”
INDEX 00 03:41:60
INDEX 01 03:44:38
TRACK 03 AUDIO
TITLE “In The City”
PERFORMER “Eagles”
INDEX 00 08:38:25
INDEX 01 08:40:03
TRACK 04 AUDIO
TITLE “The Disco Strangler”
PERFORMER “Eagles”
INDEX 00 12:23:18
INDEX 01 12:25:38
TRACK 05 AUDIO
TITLE “King of Hollywood”
PERFORMER “Eagles”
INDEX 01 15:09:18
TRACK 06 AUDIO
TITLE “Heartache Tonight”
PERFORMER “Eagles”
INDEX 00 21:34:43
INDEX 01 21:37:10
TRACK 07 AUDIO
TITLE “Those Shoes”
PERFORMER “Eagles”
INDEX 00 26:00:43
INDEX 01 26:02:13
TRACK 08 AUDIO
TITLE “Teenage Jail”
PERFORMER “Eagles”
INDEX 00 30:55:33
INDEX 01 30:58:03
TRACK 09 AUDIO
TITLE “The Greeks Don’t Want No Freaks”
PERFORMER “Eagles”
INDEX 01 34:42:33
TRACK 10 AUDIO
TITLE “The Sad Cafe”
PERFORMER “Eagles”
INDEX 00 36:59:65
INDEX 01 37:03:00


Spread the Download

Leave a Reply

Your email address will not be published. Required fields are marked *

Enter the text from the image below
 

This site uses Akismet to reduce spam. Learn how your comment data is processed.