Dream Theater – Official Bootleg: Falling Into Infinity Demos 1996-1997




[Total: 0    Average: 0/5]

Artist: Dream Theater
Year: 2007
Genre: Metal
Notes: Discogs
Add. Notes:
Cover incl.: Yes
Encoder: FLAC
Bitrate: ~800 kBit/s (44.1 kHz/16 Bit/s)
Log & Cue incl.: Yes
Size: 902,63 MB
Password: “slam” (without ” “)


All Downloads/Hosters are compatible

Download 1
Share-online.biz
Rapidgator.net
KatFile.com
UploadRar.com
Download 2
Share-online.biz
Rapidgator.net
KatFile.com
UploadRar.com

Tracklist:

1-1 - Raise The Knife - 11:40
1-2 - Where Are You Now? - 7:27
1-3 - Take Away My Pain - 6:49
1-4 - You Or Me - 6:24
1-5 - Anna Lee - 6:36
1-6 - Burning My Soul - 8:57
1-7 - The Way It Used To Be - 7:47
1-8 - Lines In The Sand - 13:32

2-1 - Just Let Me Breathe - 5:24
2-2 - Peruvian Skies - 6:47
2-3 - Trial Of Tears - 12:54
2-4 - Cover My Eyes - 3:23
2-5 - Hollow Years - 6:26
2-6 - New Millennium - 8:19
2-7 - Speak To Me - 6:25
Bonus Track
2-8 - Metropolis Pt. 2 (Live Rehearsal Version) - 21:25

EAC-Log, CUE-Sheed & NFO:

Click to open spoiler
Exact Audio Copy V1.0 beta 1 from 15. November 2010

EAC extraction logfile from 24. December 2010, 11:12

Dream Theater / Official Bootleg – Falling Into Infinity Demos 1996-1997 (Disc-1)

Used drive : PLEXTOR CD-R PX-240A Adapter: 1 ID: 1

Read mode : Secure
Utilize accurate stream : Yes
Defeat audio cache : Yes
Make use of C2 pointers : No

Read offset correction : 6
Overread into Lead-In and Lead-Out : No
Fill up missing offset samples with silence : Yes
Delete leading and trailing silent blocks : No
Null samples used in CRC calculations : Yes
Used interface : Installed external ASPI interface

Used output format : Internal WAV Routines
Sample format : 44.100 Hz; 16 Bit; Stereo

TOC of the extracted CD

Track | Start | Length | Start sector | End sector
———————————————————
1 | 0:00.00 | 11:40.07 | 0 | 52506
2 | 11:40.07 | 7:27.39 | 52507 | 86070
3 | 19:07.46 | 6:49.23 | 86071 | 116768
4 | 25:56.69 | 6:24.23 | 116769 | 145591
5 | 32:21.17 | 6:36.15 | 145592 | 175306
6 | 38:57.32 | 8:57.55 | 175307 | 215636
7 | 47:55.12 | 7:47.63 | 215637 | 250724
8 | 55:43.00 | 13:32.48 | 250725 | 311672

Range status and errors

Selected range

Filename Z:\data\mp3\Seeding\Dream Theater\Official Bootlegs\2007-Falling Into Infinity Demos 1996-1997\fallingdemos1.wav

Peak level 100.0 %
Extraction speed 1.5 X
Range quality 100.0 %
Test CRC E93580A4
Copy CRC E93580A4
Copy OK

No errors occurred

AccurateRip summary

Track 1 accurately ripped (confidence 16) [76BFB0C5]
Track 2 accurately ripped (confidence 15) [94C9ACFB]
Track 3 accurately ripped (confidence 15) [C745F819]
Track 4 accurately ripped (confidence 15) [8F5D57CD]
Track 5 accurately ripped (confidence 15) [06AD4998]
Track 6 accurately ripped (confidence 15) [2FBE7EF4]
Track 7 accurately ripped (confidence 15) [76E528ED]
Track 8 accurately ripped (confidence 15) [CDD3BCB4]

All tracks accurately ripped

End of status report

Exact Audio Copy V1.0 beta 1 from 15. November 2010

EAC extraction logfile from 24. December 2010, 11:13

Dream Theater / Official Bootleg – Falling Into Infinity Demos 1996-1997 (Disc-2)

Used drive : LITE-ON DVDRW LH-20A1L Adapter: 4 ID: 0

Read mode : Secure
Utilize accurate stream : Yes
Defeat audio cache : Yes
Make use of C2 pointers : No

Read offset correction : 6
Overread into Lead-In and Lead-Out : No
Fill up missing offset samples with silence : Yes
Delete leading and trailing silent blocks : No
Null samples used in CRC calculations : Yes
Used interface : Installed external ASPI interface

Used output format : Internal WAV Routines
Sample format : 44.100 Hz; 16 Bit; Stereo

TOC of the extracted CD

Track | Start | Length | Start sector | End sector
———————————————————
1 | 0:00.00 | 5:24.22 | 0 | 24321
2 | 5:24.22 | 6:47.69 | 24322 | 54915
3 | 12:12.16 | 12:54.15 | 54916 | 112980
4 | 25:06.31 | 3:23.30 | 112981 | 128235
5 | 28:29.61 | 6:26.64 | 128236 | 157249
6 | 34:56.50 | 8:19.67 | 157250 | 194741
7 | 43:16.42 | 6:25.28 | 194742 | 223644
8 | 49:41.70 | 21:25.31 | 223645 | 320050

Range status and errors

Selected range

Filename Z:\data\mp3\Seeding\Dream Theater\Official Bootlegs\2007-Falling Into Infinity Demos 1996-1997\fallingdemos2.wav

Peak level 100.0 %
Extraction speed 2.1 X
Range quality 99.9 %
Test CRC 9B3BB69D
Copy CRC 9B3BB69D
Copy OK

No errors occurred

AccurateRip summary

Track 1 accurately ripped (confidence 16) [0A08876E]
Track 2 accurately ripped (confidence 16) [0477C90A]
Track 3 accurately ripped (confidence 16) [788EC4B7]
Track 4 accurately ripped (confidence 16) [D16354C6]
Track 5 accurately ripped (confidence 16) [2804CDEB]
Track 6 accurately ripped (confidence 16) [2464DB17]
Track 7 accurately ripped (confidence 16) [53B2EBC8]
Track 8 accurately ripped (confidence 17) [92915A18]

All tracks accurately ripped

End of status report

REM GENRE “Progressive Metal”
REM DATE 2007
REM DISCID 76103B08
REM COMMENT “ExactAudioCopy v1.0b1”
PERFORMER “Dream Theater”
TITLE “Official Bootleg: Falling Into Infinity Demos 1996-1997 CD 1”
FILE “fallingdemos1.wav” WAVE
TRACK 01 AUDIO
TITLE “Raise The Knife”
PERFORMER “Dream Theater”
INDEX 01 00:00:00
TRACK 02 AUDIO
TITLE “Where Are You Now?”
PERFORMER “Dream Theater”
INDEX 01 11:40:07
TRACK 03 AUDIO
TITLE “Take Away My Pain”
PERFORMER “Dream Theater”
INDEX 01 19:07:46
TRACK 04 AUDIO
TITLE “You Or Me”
PERFORMER “Dream Theater”
INDEX 01 25:56:69
TRACK 05 AUDIO
TITLE “Anna Lee”
PERFORMER “Dream Theater”
INDEX 01 32:21:17
TRACK 06 AUDIO
TITLE “Burning My Soul”
PERFORMER “Dream Theater”
INDEX 01 38:57:32
TRACK 07 AUDIO
TITLE “The Way It Used To Be”
PERFORMER “Dream Theater”
INDEX 01 47:55:12
TRACK 08 AUDIO
TITLE “Lines In The Sand”
PERFORMER “Dream Theater”
INDEX 01 55:43:00

REM GENRE “Progressive Metal”
REM DATE 2007
REM DISCID 7410AB08
REM COMMENT “ExactAudioCopy v1.0b1”
PERFORMER “Dream Theater”
TITLE “Official Bootleg: Falling Into Infinity Demos 1996-1997 CD 2”
FILE “fallingdemos2.wav” WAVE
TRACK 01 AUDIO
TITLE “Just Let Me Breathe”
PERFORMER “Dream Theater”
INDEX 01 00:00:00
TRACK 02 AUDIO
TITLE “Peruvian Skies”
PERFORMER “Dream Theater”
INDEX 01 05:24:22
TRACK 03 AUDIO
TITLE “Trial Of Tears”
PERFORMER “Dream Theater”
INDEX 01 12:12:16
TRACK 04 AUDIO
TITLE “Cover My Eyes”
PERFORMER “Dream Theater”
INDEX 01 25:06:31
TRACK 05 AUDIO
TITLE “Hollow Years”
PERFORMER “Dream Theater”
INDEX 01 28:29:61
TRACK 06 AUDIO
TITLE “New Millennium”
PERFORMER “Dream Theater”
INDEX 01 34:56:50
TRACK 07 AUDIO
TITLE “Speak To Me”
PERFORMER “Dream Theater”
INDEX 01 43:16:42
TRACK 08 AUDIO
TITLE “Metropolis Pt. 2 (Live Rehearsal Version)”
PERFORMER “Dream Theater”
INDEX 01 49:41:70


Spread the Download

Leave a Reply

Your email address will not be published. Required fields are marked *

Enter the text from the image below
 

This site uses Akismet to reduce spam. Learn how your comment data is processed.