Dio – Intermission




[Total: 0    Average: 0/5]

Artist: Dio
Year: 1986/1990
Genre: Metal
Notes: Discogs
Add. Notes:
Cover incl.: Yes
Encoder: FLAC
Bitrate: ~900 kBit/s (44.1 kHz/16 Bit/s)
Log & Cue incl.: Yes
Size: 218,42 MB
Password: “slam” (without ” “)


All Downloads/Hosters are compatible

Download 1
Share-online.biz
Rapidgator.net
KatFile.com
UploadRar.com
Download 2
Share-online.biz
Rapidgator.net
KatFile.com
UploadRar.com

Tracklist:

1 - King Of Rock And Roll - 3:41
2 - Rainbow In The Dark - 4:42
3 - Sacred Heart - 6:23
4 - Time To Burn - 4:26
5 - Rock 'N' Roll Children - 9:40
Medley
5.1 - Long Live Rock 'N' Roll - 
5.2 - Man On The Silver Mountain - 
6 - We Rock - 4:55

EAC-Log, CUE-Sheed & NFO:

Click to open spoiler
Exact Audio Copy V1.0 beta 3 from 29. August 2011

EAC extraction logfile from 9. January 2013, 2:39

Dio / Intermission

Used drive : Optiarc DVD-ROM DDU1675S Adapter: 3 ID: 0

Read mode : Secure
Utilize accurate stream : Yes
Defeat audio cache : Yes
Make use of C2 pointers : No

Read offset correction : 6
Overread into Lead-In and Lead-Out : No
Fill up missing offset samples with silence : Yes
Delete leading and trailing silent blocks : No
Null samples used in CRC calculations : Yes
Used interface : Native Win32 interface for Win NT & 2000

Used output format : User Defined Encoder
Selected bitrate : 1024 kBit/s
Quality : High
Add ID3 tag : No
Command line compressor : C:\Program Files (x86)\Exact Audio Copy\Flac\flac.exe
Additional command line options : -V -8 -T “Date=%year%” -T “Genre=%genre%” %source%

TOC of the extracted CD

Track | Start | Length | Start sector | End sector
———————————————————
1 | 0:00.33 | 3:41.00 | 33 | 16607
2 | 3:41.33 | 4:42.37 | 16608 | 37794
3 | 8:23.70 | 6:23.38 | 37795 | 66557
4 | 14:47.33 | 4:26.12 | 66558 | 86519
5 | 19:13.45 | 9:40.00 | 86520 | 130019
6 | 28:53.45 | 4:55.00 | 130020 | 152144

Range status and errors

Selected range

Filename F:\Dio – Intermission (Vertigo, 830 078-2, W.Germany)\Dio – Intermission.wav

Peak level 100.0 %
Extraction speed 4.0 X
Range quality 100.0 %
Test CRC E197029D
Copy CRC E197029D
Copy OK

No errors occurred

AccurateRip summary

Track 1 accurately ripped (confidence 2) [52DC4E65] (AR v2)
Track 2 accurately ripped (confidence 2) [3C481E61] (AR v2)
Track 3 accurately ripped (confidence 2) [6E8EBD15] (AR v2)
Track 4 accurately ripped (confidence 2) [612ACBFE] (AR v2)
Track 5 accurately ripped (confidence 2) [01630B65] (AR v2)
Track 6 accurately ripped (confidence 2) [0FB6DDBB] (AR v2)

All tracks accurately ripped

End of status report

==== Log checksum B5FA3CDF2E719C79518EF33D3F50DC6BFC43D445320F93CD22EA090C5DC2ACDB ====

REM GENRE “Heavy Metal”
REM DATE 1986
REM DISCID 4807EC06
REM COMMENT “ExactAudioCopy v1.0b3”
PERFORMER “Dio”
TITLE “Intermission”
FILE “Dio – Intermission.flac” WAVE
TRACK 01 AUDIO
TITLE “King Of Rock And Roll”
PERFORMER “Dio”
INDEX 00 00:00:00
INDEX 01 00:00:33
TRACK 02 AUDIO
TITLE “Rainbow In The Dark”
PERFORMER “Dio”
INDEX 01 03:41:33
TRACK 03 AUDIO
TITLE “Sacred Heart”
PERFORMER “Dio”
INDEX 01 08:23:70
TRACK 04 AUDIO
TITLE “Time To Burn”
PERFORMER “Dio”
INDEX 01 14:47:33
TRACK 05 AUDIO
TITLE “Rock ‘n’ Roll Children / Medley: Long Live Rock ‘n’ Roll & Man On The Silver Mountain”
PERFORMER “Dio”
INDEX 00 19:12:58
INDEX 01 19:13:45
TRACK 06 AUDIO
TITLE “We Rock”
PERFORMER “Dio”
INDEX 01 28:53:45


Spread the Download

Leave a Reply

Your email address will not be published. Required fields are marked *

Enter the text from the image below
 

This site uses Akismet to reduce spam. Learn how your comment data is processed.