Die Toten Hosen – Never Mind The Hosen – Here’s Die Roten Rosen




[Total: 0    Average: 0/5]

Artist: Die Toten Hosen
Year: 1987
Genre: Punk
Notes: Discogs
Add. Notes:
Cover incl.: Yes
Encoder: FLAC
Bitrate: ~900 kBit/s (44.1 kHz/16 Bit/s)
Log & Cue incl.: Yes
Size: 282,33 MB
Password: “slam” (without ” “)


All Downloads/Hosters are compatible

Download 1
Share-online.biz
Rapidgator.net
KatFile.com
UploadRar.com
Download 2
Share-online.biz
Rapidgator.net
KatFile.com
UploadRar.com

Tracklist:

1 - Itsy Bitsy Teenie Weenie Honolulu-Strand-Bikini - 1:54
2 - Alle Mädchen Wollen Küssen - 1:26
3 - Im Wagen Vor Mir - 3:28
4 - Für Gaby Tu' Ich Alles - 2:29
5 - Wir - 3:36
6 - Und Sowas Nennst Du Liebe - 2:27
7 - Kein Gnadenbrot - 3:40
8 - Halbstark - 2:26
9 - Die Sauerkrautpolka - 1:50
10 - Wenn Du Mal Allein Bist - 2:29
11 - Zwei Mädchen Aus Germany - 2:14
12 - Mein Hobby Sind Die Girls - 2:53
13 - Medley - 4:14

EAC-Log, CUE-Sheed & NFO:

Click to open spoiler
Exact Audio Copy V0.99 prebeta 4 from 23. January 2008

EAC Auslese-Logdatei vom 15. März 2009, 12:01

Die Roten Rosen / Never Mind The Hosen Here’s Die Roten Rosen

Benutztes Laufwerk : HL-DT-STDVD-ROM GDR-H30N Adapter: 0 ID: 1

Lesemodus : Sicher
Benutze Accurate Stream : Ja
Audio Puffer abgeschaltet : Ja
Benutze C2 Fehlerinformationen : Nein

Leseoffset Korrektur : 6
Überlesen in das Lead-In und Lead-Out : Nein
Fülle fehlende Offsetsample mit Stille auf : Ja
Lösche führende und nachfolgende stille Blöcke : Nein
Null Samples gehen in CRC Berechnungen ein : Ja
Benutzte Schnittstelle : Installierte externe ASPI Schnittstelle

Benutztes Ausgabeformat : Interne WAV Routinen
Sampleformat : 44.100 Hz; 16 Bit; Stereo

TOC der ausgelesenen CD

Track | Start | Länge | Startsektor | Endsektor
——————————————————-
1 | 0:00.00 | 1:58.45 | 0 | 8894
2 | 1:58.45 | 1:33.12 | 8895 | 15881
3 | 3:31.57 | 3:40.15 | 15882 | 32396
4 | 7:11.72 | 2:39.30 | 32397 | 44351
5 | 9:51.27 | 3:50.40 | 44352 | 61641
6 | 13:41.67 | 2:40.58 | 61642 | 73699
7 | 16:22.50 | 2:49.02 | 73700 | 86376
8 | 19:11.52 | 2:35.63 | 86377 | 98064
9 | 21:47.40 | 1:59.27 | 98065 | 107016
10 | 23:46.67 | 3:06.65 | 107017 | 121031
11 | 26:53.57 | 2:21.50 | 121032 | 131656
12 | 29:15.32 | 2:56.28 | 131657 | 144884
13 | 32:11.60 | 4:27.12 | 144885 | 164921

Bereichsstatus und Fehler

Gewählter Bereich

Dateiname K:\Die Toten Hosen – Diskografie\Albums\1987 – Never Mind The Hosen – Here’s Die Roten Rosen aus Duesseldorf\Die Roten Rosen – Never Mind The Hosen Here’s Die Roten Rosen.wav

Spitzenpegel 100.0 %
Bereichsqualität 100.0 %
Kopie CRC C2C9DC55
Kopie OK

Keine Fehler aufgetreten

AccurateRip Übersicht

Track 1 akkurat gelesen (Zuversicht 7) [06EDB380]
Track 2 akkurat gelesen (Zuversicht 7) [79DA2103]
Track 3 akkurat gelesen (Zuversicht 7) [FE99C33A]
Track 4 akkurat gelesen (Zuversicht 7) [8F7B8CB7]
Track 5 akkurat gelesen (Zuversicht 7) [477A44AD]
Track 6 akkurat gelesen (Zuversicht 7) [0F588D95]
Track 7 akkurat gelesen (Zuversicht 7) [230B247E]
Track 8 akkurat gelesen (Zuversicht 7) [0B20CB41]
Track 9 akkurat gelesen (Zuversicht 7) [B1C5FF60]
Track 10 akkurat gelesen (Zuversicht 7) [4951CA74]
Track 11 akkurat gelesen (Zuversicht 7) [C9CF92A9]
Track 12 akkurat gelesen (Zuversicht 7) [43C6E0FD]
Track 13 akkurat gelesen (Zuversicht 7) [841E229A]

Alle Tracks wurden akkurat gelesen

Ende des Statusreports

REM GENRE “Punk Rock”
REM DATE 1994
REM DISCID 9F08960D
REM COMMENT “ExactAudioCopy v0.99pb4”
PERFORMER “Die Roten Rosen”
TITLE “Never Mind The Hosen Here’s Die Roten Rosen”
FILE “Die Roten Rosen – Never Mind The Hosen Here’s Die Roten Rosen.wav” WAVE
TRACK 01 AUDIO
TITLE “Itsy Bitsy Teenie Weenie Honolulu-Strand-Bikini”
PERFORMER “Die Roten Rosen”
INDEX 01 00:00:00
TRACK 02 AUDIO
TITLE “Alle Mädchen Wollen Küssen”
PERFORMER “Die Roten Rosen”
INDEX 00 01:58:42
INDEX 01 01:58:45
TRACK 03 AUDIO
TITLE “Im Wagen Vor Mir”
PERFORMER “Die Roten Rosen”
INDEX 00 03:31:55
INDEX 01 03:31:57
TRACK 04 AUDIO
TITLE “Für Gabi Tu Ich Alles”
PERFORMER “Die Roten Rosen”
INDEX 00 07:11:70
INDEX 01 07:11:72
TRACK 05 AUDIO
TITLE “Wir”
PERFORMER “Die Roten Rosen”
INDEX 00 09:49:07
INDEX 01 09:51:27
TRACK 06 AUDIO
TITLE “Und Sowas Nennst Du Nun Liebe”
PERFORMER “Die Roten Rosen”
INDEX 00 13:40:32
INDEX 01 13:41:67
TRACK 07 AUDIO
TITLE “Kein Gnadenbrot”
PERFORMER “Die Roten Rosen”
INDEX 00 16:19:35
INDEX 01 16:22:50
TRACK 08 AUDIO
TITLE “1/2stark”
PERFORMER “Die Roten Rosen”
INDEX 00 19:11:50
INDEX 01 19:11:52
TRACK 09 AUDIO
TITLE “Sauerkrautpolka”
PERFORMER “Die Roten Rosen”
INDEX 00 21:47:37
INDEX 01 21:47:40
TRACK 10 AUDIO
TITLE “Wenn Du Mal Allein Bist”
PERFORMER “Die Roten Rosen”
INDEX 00 23:45:13
INDEX 01 23:46:67
TRACK 11 AUDIO
TITLE “Zwei Mädchen Aus Germany”
PERFORMER “Die Roten Rosen”
INDEX 00 26:53:55
INDEX 01 26:53:57
TRACK 12 AUDIO
TITLE “Mein Hobby Sind Die Girls”
PERFORMER “Die Roten Rosen”
INDEX 00 29:12:72
INDEX 01 29:15:32
TRACK 13 AUDIO
TITLE “Medley”
PERFORMER “Die Roten Rosen”
INDEX 00 32:09:47
INDEX 01 32:11:60


Spread the Download

Leave a Reply

Your email address will not be published. Required fields are marked *

Enter the text from the image below
 

This site uses Akismet to reduce spam. Learn how your comment data is processed.