Depeche Mode – The Best of, Volume 1 (Remastered)




[Total: 0    Average: 0/5]

Artist: Depeche Mode
Year: 2006
Genre: Rock
Notes: Discogs
Add. Notes: Remastered
Encoder: FLAC
Bitrate: ~800 kBit/s (44.1 kHz/16 Bit/s)
Size: 533 MB
Password: “slam” (without ” “)


http://www.share-online.biz/dl/4JMXRYPPGF
http://www.share-online.biz/dl/DDYWRYPPLZ
http://www.share-online.biz/dl/XAKZRYPPS7
https://rapidgator.net/file/63acd8eaee14890bff63b4c58f16d989/DepMod-2006-TheBestVol1.part1.rar
https://rapidgator.net/file/bc9c4df3fa4ea871d8eb1a0febdf7685/DepMod-2006-TheBestVol1.part2.rar
https://rapidgator.net/file/5239294c7dc30976b13fb3fc9ffafcba/DepMod-2006-TheBestVol1.part3.rar
https://ayefiles.com/9wav08uins8b/DepMod-2006-TheBestVol1.part1.rar.html
https://ayefiles.com/i7srjcsvho9z/DepMod-2006-TheBestVol1.part2.rar.html
https://ayefiles.com/2rnfx2unm4gp/DepMod-2006-TheBestVol1.part3.rar.html

Onlinestatus: Share-online.biz Rapidgator.net AyeFiles.com

Tracklist:

1  Personal Jesus  
2  Just Can't Get Enough  
3  Everything Counts  
4  Enjoy The Silence  
5  Shake The Disease  
6  See You  
7  It's No Good  
8  Strangelove  
9  Suffer Well  
10  Dream On  
11  People Are People  
12  Martyr  
13  Walking In My Shoes  
14  I Feel You  
15  Precious  
16  Master And Servant  
17  New Life  
18  Never Let Me Down Again

EAC-Log, CUE-Sheed & NFO:

Click to open spoiler
EAC extraction logfile from 9. December 2007, 10:43 for CD
Depeche Mode / The Best Of – Volume 1

Used drive : PLEXTOR DVDR PX-760A Adapter: 1 ID: 0
Read mode : Secure with NO C2, accurate stream, disable cache
Read offset correction : 30
Overread into Lead-In and Lead-Out : No

Used output format : C:\Program Files\Exact Audio Copy\flac.exe (User Defined Encoder)
192 kBit/s
Additional command line options : -8 -A tukey(0.25) -A gauss(0.1875) -b 4096 -V -T “artist=%a” -T “title=%t” -T “album=%g” -T “date=%y” -T “tracknumber=%n” -T “genre=%m” %s –sector-align

Other options :
Fill up missing offset samples with silence : Yes
Delete leading and trailing silent blocks : No
Installed external ASPI interface

Track 1
Filename H:\Temp\01 – Personal Jesus.wav

Pre-gap length 0:00:02.00

Peak level 98.8 %
Track quality 100.0 %
Test CRC 5160AC7F
Copy CRC 5160AC7F
Copy OK

Track 2
Filename H:\Temp\02 – Just Can’t Get Enough.wav

Pre-gap length 0:00:02.37

Peak level 95.5 %
Track quality 100.0 %
Test CRC 678587D7
Copy CRC 678587D7
Copy OK

Track 3
Filename H:\Temp\03 – Everything Counts.wav

Pre-gap length 0:00:02.42

Peak level 97.7 %
Track quality 100.0 %
Test CRC 693BDF6A
Copy CRC 693BDF6A
Copy OK

Track 4
Filename H:\Temp\04 – Enjoy The Silence.wav

Pre-gap length 0:00:02.16

Peak level 98.8 %
Track quality 100.0 %
Test CRC 3EF7FE2E
Copy CRC 3EF7FE2E
Copy OK

Track 5
Filename H:\Temp\05 – Shake The Disease.wav

Pre-gap length 0:00:01.26

Peak level 95.1 %
Track quality 100.0 %
Test CRC 11E19C83
Copy CRC 11E19C83
Copy OK

Track 6
Filename H:\Temp\06 – See You.wav

Pre-gap length 0:00:02.08

Peak level 100.0 %
Track quality 100.0 %
Test CRC 4797BD49
Copy CRC 4797BD49
Copy OK

Track 7
Filename H:\Temp\07 – It’s No Good.wav

Pre-gap length 0:00:02.26

Peak level 98.8 %
Track quality 99.9 %
Test CRC F777241C
Copy CRC F777241C
Copy OK

Track 8
Filename H:\Temp\08 – Strangelove.wav

Pre-gap length 0:00:01.06

Peak level 100.0 %
Track quality 100.0 %
Test CRC 9A6FFE84
Copy CRC 9A6FFE84
Copy OK

Track 9
Filename H:\Temp\09 – Suffer Well.wav

Pre-gap length 0:00:02.21

Peak level 79.3 %
Track quality 100.0 %
Test CRC FCDE2B7B
Copy CRC FCDE2B7B
Copy OK

Track 10
Filename H:\Temp\10 – Dream On.wav

Pre-gap length 0:00:02.81

Peak level 92.7 %
Track quality 100.0 %
Test CRC 9D7A6979
Copy CRC 9D7A6979
Copy OK

Track 11
Filename H:\Temp\11 – People Are People.wav

Pre-gap length 0:00:02.37

Peak level 98.8 %
Track quality 100.0 %
Test CRC 35CFEE52
Copy CRC 35CFEE52
Copy OK

Track 12
Filename H:\Temp\12 – Martyr.wav

Pre-gap length 0:00:02.16

Peak level 97.7 %
Track quality 100.0 %
Test CRC EE9B4A33
Copy CRC EE9B4A33
Copy OK

Track 13
Filename H:\Temp\13 – Walking In My Shoes.wav

Pre-gap length 0:00:03.16

Peak level 97.7 %
Track quality 100.0 %
Test CRC C3E149E1
Copy CRC C3E149E1
Copy OK

Track 14
Filename H:\Temp\14 – I Feel You.wav

Pre-gap length 0:00:01.72

Peak level 97.7 %
Track quality 100.0 %
Test CRC CFE43170
Copy CRC CFE43170
Copy OK

Track 15
Filename H:\Temp\15 – Precious.wav

Pre-gap length 0:00:01.33

Peak level 76.5 %
Track quality 100.0 %
Test CRC 470179E1
Copy CRC 470179E1
Copy OK

Track 16
Filename H:\Temp\16 – Master And Servant.wav

Pre-gap length 0:00:01.02

Peak level 97.7 %
Track quality 100.0 %
Test CRC 56C872A4
Copy CRC 56C872A4
Copy OK

Track 17
Filename H:\Temp\17 – New Life.wav

Pre-gap length 0:00:01.73

Peak level 95.5 %
Track quality 99.9 %
Test CRC E776C03B
Copy CRC E776C03B
Copy OK

Track 18
Filename H:\Temp\18 – Never Let Me Down Again.wav

Pre-gap length 0:00:02.50

Peak level 98.8 %
Track quality 100.0 %
Test CRC EFC150F2
Copy CRC EFC150F2
Copy OK

No errors occured

End of status report

REM COMMENT “CUETools generated dummy CUE sheet”
FILE “01 – Personal Jesus.flac” WAVE
TRACK 01 AUDIO
INDEX 01 00:00:00
FILE “02 – Just Can’t Get Enough.flac” WAVE
TRACK 02 AUDIO
INDEX 01 00:00:00
FILE “03 – Everything Counts.flac” WAVE
TRACK 03 AUDIO
INDEX 01 00:00:00
FILE “04 – Enjoy the Silence.flac” WAVE
TRACK 04 AUDIO
INDEX 01 00:00:00
FILE “05 – Shake the Disease.flac” WAVE
TRACK 05 AUDIO
INDEX 01 00:00:00
FILE “06 – See You.flac” WAVE
TRACK 06 AUDIO
INDEX 01 00:00:00
FILE “07 – It’s No Good.flac” WAVE
TRACK 07 AUDIO
INDEX 01 00:00:00
FILE “08 – Strangelove.flac” WAVE
TRACK 08 AUDIO
INDEX 01 00:00:00
FILE “09 – Suffer Well.flac” WAVE
TRACK 09 AUDIO
INDEX 01 00:00:00
FILE “10 – Dream On.flac” WAVE
TRACK 10 AUDIO
INDEX 01 00:00:00
FILE “11 – People Are People.flac” WAVE
TRACK 11 AUDIO
INDEX 01 00:00:00
FILE “12 – Martyr.flac” WAVE
TRACK 12 AUDIO
INDEX 01 00:00:00
FILE “13 – Walking in My Shoes.flac” WAVE
TRACK 13 AUDIO
INDEX 01 00:00:00
FILE “14 – I Feel You.flac” WAVE
TRACK 14 AUDIO
INDEX 01 00:00:00
FILE “15 – Precious.flac” WAVE
TRACK 15 AUDIO
INDEX 01 00:00:00
FILE “16 – Master and Servant.flac” WAVE
TRACK 16 AUDIO
INDEX 01 00:00:00
FILE “17 – New Life.flac” WAVE
TRACK 17 AUDIO
INDEX 01 00:00:00
FILE “18 – Never Let Me Down Again.flac” WAVE
TRACK 18 AUDIO
INDEX 01 00:00:00

Spread the Download

Leave a Reply

Your email address will not be published. Required fields are marked *

Enter the text from the image below
 

This site uses Akismet to reduce spam. Learn how your comment data is processed.