Depeche Mode – Sounds of the Universe




[Total: 0    Average: 0/5]

Artist: Depeche Mode
Year: 2009
Genre: Rock
Notes: Discogs
Add. Notes:
Cover incl.: Yes
Encoder: FLAC
Bitrate: ~800 kBit/s (44.1 kHz/16 Bit/s)
Log & Cue incl.: Yes
Size: 377,81 MB
Password: “slam” (without ” “)


All Downloads/Hosters are compatible

Download 1
Share-online.biz
KatFile.com
Rapidgator.net
Download 2
Share-online.biz
KatFile.com
Rapidgator.net

Tracklist:

1 - In Chains - 6:53
2 - Hole To Feed - 3:59
3 - Wrong - 3:13
4 - Fragile Tension - 4:09
5 - Little Soul - 3:31
6 - In Sympathy - 4:54
7 - Peace - 4:29
8 - Come Back - 5:15
9 - Spacewalker - 1:53
10 - Perfect - 4:33
11 - Miles Away / The Truth Is - 4:14
12 - Jezebel - 4:41
13.1 - Corrupt - 5:04
13.2 - (silence) - 3:13
13.3 - Untitled - 0:41

EAC-Log, CUE-Sheed & NFO:

Click to open spoiler
Exact Audio Copy V0.99 prebeta 4 from 23. January 2008

EAC extraction logfile from 20. April 2009, 1:00

Depeche Mode / Sounds of the universe

Used drive : ASUS DRW-1608P Adapter: 2 ID: 0

Read mode : Secure
Utilize accurate stream : Yes
Defeat audio cache : Yes
Make use of C2 pointers : No

Read offset correction : 48
Overread into Lead-In and Lead-Out : No
Fill up missing offset samples with silence : Yes
Delete leading and trailing silent blocks : No
Null samples used in CRC calculations : Yes
Used interface : Native Win32 interface for Win NT & 2000

Used output format : User Defined Encoder
Selected bitrate : 1024 kBit/s
Quality : High
Add ID3 tag : No
Command line compressor : C:\Program Files (x86)\Exact Audio Copy\Flac\flac.exe
Additional command line options : -5 -V -T “ARTIST=%a” -T “TITLE=%t” -T “ALBUM=%g” -T “DATE=%y” -T “TRACKNUMBER=%n” -T “GENRE=%m” -T “COMMENT=EAC FLAC -5” %s

TOC of the extracted CD

Track | Start | Length | Start sector | End sector
———————————————————
1 | 0:00.00 | 6:53.07 | 0 | 30981
2 | 6:53.07 | 3:59.38 | 30982 | 48944
3 | 10:52.45 | 3:13.52 | 48945 | 63471
4 | 14:06.22 | 4:09.35 | 63472 | 82181
5 | 18:15.57 | 3:31.20 | 82182 | 98026
6 | 21:47.02 | 4:54.70 | 98027 | 120146
7 | 26:41.72 | 4:29.00 | 120147 | 140321
8 | 31:10.72 | 5:15.65 | 140322 | 164011
9 | 36:26.62 | 1:53.23 | 164012 | 172509
10 | 38:20.10 | 4:33.30 | 172510 | 193014
11 | 42:53.40 | 4:14.72 | 193015 | 212136
12 | 47:08.37 | 4:41.55 | 212137 | 233266
13 | 51:50.17 | 8:58.73 | 233267 | 273689

Range status and errors

Selected range

Filename F:\Depeche Mode 2009\CD1\Depeche Mode – Sounds of the universe.wav

Peak level 99.8 %
Range quality 100.0 %
Test CRC 0269B045
Copy CRC 0269B045
Copy OK

No errors occurred

AccurateRip summary

Track 1 not present in database
Track 2 not present in database
Track 3 not present in database
Track 4 not present in database
Track 5 not present in database
Track 6 not present in database
Track 7 not present in database
Track 8 not present in database
Track 9 not present in database
Track 10 not present in database
Track 11 not present in database
Track 12 not present in database
Track 13 not present in database

None of the tracks are present in the AccurateRip database

End of status report

REM COMMENT “CUETools generated dummy CUE sheet”
FILE “01 – In Chains.flac” WAVE
TRACK 01 AUDIO
INDEX 01 00:00:00
FILE “02 – Hole to Feed.flac” WAVE
TRACK 02 AUDIO
INDEX 01 00:00:00
FILE “03 – Wrong.flac” WAVE
TRACK 03 AUDIO
INDEX 01 00:00:00
FILE “04 – Fragile Tension.flac” WAVE
TRACK 04 AUDIO
INDEX 01 00:00:00
FILE “05 – Little Soul.flac” WAVE
TRACK 05 AUDIO
INDEX 01 00:00:00
FILE “06 – In Sympathy.flac” WAVE
TRACK 06 AUDIO
INDEX 01 00:00:00
FILE “07 – Peace.flac” WAVE
TRACK 07 AUDIO
INDEX 01 00:00:00
FILE “08 – Come Back.flac” WAVE
TRACK 08 AUDIO
INDEX 01 00:00:00
FILE “09 – Spacewalker.flac” WAVE
TRACK 09 AUDIO
INDEX 01 00:00:00
FILE “10 – Perfect.flac” WAVE
TRACK 10 AUDIO
INDEX 01 00:00:00
FILE “12 – Jezebel.flac” WAVE
TRACK 11 AUDIO
INDEX 01 00:00:00
FILE “13 – Corrupt.flac” WAVE
TRACK 12 AUDIO
INDEX 01 00:00:00


Spread the Download

Leave a Reply

Your email address will not be published. Required fields are marked *

Enter the text from the image below
 

This site uses Akismet to reduce spam. Learn how your comment data is processed.