Depeche Mode – Playing the Angel




  • [Total: 0    Average: 0/5]

    Artist: Depeche Mode
    Year: 2005
    Genre: Rock
    Notes: Discogs
    Add. Notes:
    Encoder: FLAC
    Bitrate: ~900 kBit/s (44.1 kHz/16 Bit/s)
    Size: 350 MB
    Password: “slam” (without ” “)


    http://www.share-online.biz/dl/ZS0YRYPPX6HZ
    http://www.share-online.biz/dl/N7VWRYPPWT
    https://rapidgator.net/file/21a4c52b4dffeaf543ad145bca80c885/DepMod-2005-PlaTheAng.part1.rar
    https://rapidgator.net/file/bce5c4102e69db1a2ad97c56f4d9dbbb/DepMod-2005-PlaTheAng.part2.rar
    https://ayefiles.com/aqj58ogw0ovx/DepMod-2005-PlaTheAng.part1.rar.html
    https://ayefiles.com/idvejnfsg767/DepMod-2005-PlaTheAng.part2.rar.html

    Onlinestatus: Share-online.biz Rapidgator.net AyeFiles.com

    Tracklist:

    1 - A Pain That I'm Used To - 4:11
    2 - John The Revelator - 3:43
    3 - Suffer Well - 3:49
    4 - The Sinner In Me - 4:56
    5 - Precious - 4:10
    6 - Macro - 4:04
    7 - I Want It All - 6:09
    8 - Nothing's Impossible - 4:22
    9 - Introspectre - 1:42
    10 - Damaged People - 3:30
    11 - Lilian - 4:50
    12 - The Darkest Star - 6:55
    

    EAC-Log, CUE-Sheed & NFO:

    Click to open spoiler
    Exact Audio Copy V0.99 prebeta 4 from 23. January 2008

    EAC extraction logfile from 22. March 2008, 23:43

    Depeche Mode / Playing The Angel

    Used drive : ASUS DRW-1608P2S Adapter: 1 ID: 0

    Read mode : Secure
    Utilize accurate stream : Yes
    Defeat audio cache : Yes
    Make use of C2 pointers : No

    Read offset correction : 48
    Overread into Lead-In and Lead-Out : No
    Fill up missing offset samples with silence : Yes
    Delete leading and trailing silent blocks : No
    Null samples used in CRC calculations : Yes
    Used interface : Native Win32 interface for Win NT & 2000
    Gap handling : Appended to previous track

    Used output format : User Defined Encoder
    Selected bitrate : 768 kBit/s
    Quality : High
    Add ID3 tag : No
    Command line compressor : C:\Program Files (x86)\Exact Audio Copy\FLAC\FLAC.EXE
    Additional command line options : -8 -V -T “ARTIST=%a” -T “TITLE=%t” -T “ALBUM=%g” -T “DATE=%y” -T “TRACKNUMBER=%n” -T “GENRE=%m” -T “COMMENT=EAC FLAC -8” %s

    TOC of the extracted CD

    Track | Start | Length | Start sector | End sector
    ———————————————————
    1 | 0:00.00 | 4:11.27 | 0 | 18851
    2 | 4:11.27 | 3:42.48 | 18852 | 35549
    3 | 7:54.00 | 3:49.50 | 35550 | 52774
    4 | 11:43.50 | 4:56.05 | 52775 | 74979
    5 | 16:39.55 | 4:10.12 | 74980 | 93741
    6 | 20:49.67 | 4:03.25 | 93742 | 111991
    7 | 24:53.17 | 6:09.48 | 111992 | 139714
    8 | 31:02.65 | 4:21.15 | 139715 | 159304
    9 | 35:24.05 | 1:42.12 | 159305 | 166966
    10 | 37:06.17 | 3:29.63 | 166967 | 182704
    11 | 40:36.05 | 4:49.72 | 182705 | 204451
    12 | 45:26.02 | 6:55.03 | 204452 | 235579

    Track 1

    Filename H:\Temp\01. Depeche Mode – A Pain That I’m Used To.wav

    Pre-gap length 0:00:02.00

    Peak level 100.0 %
    Track quality 99.9 %
    Test CRC 96661C34
    Copy CRC 96661C34
    Accurately ripped (confidence 44) [E1EA872A]
    Copy OK

    Track 2

    Filename H:\Temp\02. Depeche Mode – John The Revelator.wav

    Pre-gap length 0:00:00.35

    Peak level 100.0 %
    Track quality 100.0 %
    Test CRC AECA49B5
    Copy CRC AECA49B5
    Accurately ripped (confidence 44) [63C69193]
    Copy OK

    Track 3

    Filename H:\Temp\03. Depeche Mode – Suffer Well.wav

    Pre-gap length 0:00:00.53

    Peak level 100.0 %
    Track quality 100.0 %
    Test CRC 72287FBC
    Copy CRC 72287FBC
    Accurately ripped (confidence 44) [8D598EBC]
    Copy OK

    Track 4

    Filename H:\Temp\04. Depeche Mode – The Sinner In Me.wav

    Peak level 100.0 %
    Track quality 100.0 %
    Test CRC 1B140DB4
    Copy CRC 1B140DB4
    Accurately ripped (confidence 45) [DA40B99F]
    Copy OK

    Track 5

    Filename H:\Temp\05. Depeche Mode – Precious.wav

    Pre-gap length 0:00:00.53

    Peak level 100.0 %
    Track quality 100.0 %
    Test CRC FB80E528
    Copy CRC FB80E528
    Accurately ripped (confidence 47) [9FD6F9E2]
    Copy OK

    Track 6

    Filename H:\Temp\06. Depeche Mode – Macro.wav

    Peak level 100.0 %
    Track quality 100.0 %
    Test CRC D02C8E56
    Copy CRC D02C8E56
    Accurately ripped (confidence 45) [683E2D38]
    Copy OK

    Track 7

    Filename H:\Temp\07. Depeche Mode – I Want It All.wav

    Pre-gap length 0:00:01.00

    Peak level 100.0 %
    Track quality 100.0 %
    Test CRC 8BB19301
    Copy CRC 8BB19301
    Accurately ripped (confidence 45) [5CDBFAC1]
    Copy OK

    Track 8

    Filename H:\Temp\08. Depeche Mode – Nothing’s Impossible.wav

    Peak level 100.0 %
    Track quality 100.0 %
    Test CRC 0EDC5562
    Copy CRC 0EDC5562
    Accurately ripped (confidence 44) [DFFAAA7E]
    Copy OK

    Track 9

    Filename H:\Temp\09. Depeche Mode – Introspectre.wav

    Peak level 89.1 %
    Track quality 100.0 %
    Test CRC 58E28A38
    Copy CRC 58E28A38
    Accurately ripped (confidence 46) [A87CB06D]
    Copy OK

    Track 10

    Filename H:\Temp\10. Depeche Mode – Damaged People.wav

    Peak level 100.0 %
    Track quality 99.9 %
    Test CRC 9B91E645
    Copy CRC 9B91E645
    Accurately ripped (confidence 46) [64B958EB]
    Copy OK

    Track 11

    Filename H:\Temp\11. Depeche Mode – Lilian.wav

    Pre-gap length 0:00:02.08

    Peak level 100.0 %
    Track quality 100.0 %
    Test CRC D872516D
    Copy CRC D872516D
    Accurately ripped (confidence 46) [C8A523B0]
    Copy OK

    Track 12

    Filename H:\Temp\12. Depeche Mode – The Darkest Star.wav

    Pre-gap length 0:00:04.15

    Peak level 100.0 %
    Track quality 100.0 %
    Test CRC 9935DF8E
    Copy CRC 9935DF8E
    Accurately ripped (confidence 43) [D95656C7]
    Copy OK

    All tracks accurately ripped

    No errors occurred

    End of status report

    REM COMMENT “CUETools generated dummy CUE sheet”
    FILE “01 – A Pain That I’m Used To.flac” WAVE
    TRACK 01 AUDIO
    INDEX 01 00:00:00
    FILE “02 – John the Revelator.flac” WAVE
    TRACK 02 AUDIO
    INDEX 01 00:00:00
    FILE “03 – Suffer Well.flac” WAVE
    TRACK 03 AUDIO
    INDEX 01 00:00:00
    FILE “04 – The Sinner in Me.flac” WAVE
    TRACK 04 AUDIO
    INDEX 01 00:00:00
    FILE “05 – Precious.flac” WAVE
    TRACK 05 AUDIO
    INDEX 01 00:00:00
    FILE “06 – Macro.flac” WAVE
    TRACK 06 AUDIO
    INDEX 01 00:00:00
    FILE “07 – I Want It All.flac” WAVE
    TRACK 07 AUDIO
    INDEX 01 00:00:00
    FILE “08 – Nothing’s Impossible.flac” WAVE
    TRACK 08 AUDIO
    INDEX 01 00:00:00
    FILE “09 – Introspectre.flac” WAVE
    TRACK 09 AUDIO
    INDEX 01 00:00:00
    FILE “10 – Damaged People.flac” WAVE
    TRACK 10 AUDIO
    INDEX 01 00:00:00
    FILE “11 – Lilian.flac” WAVE
    TRACK 11 AUDIO
    INDEX 01 00:00:00
    FILE “12 – The Darkest Star.flac” WAVE
    TRACK 12 AUDIO
    INDEX 01 00:00:00

    Author: Chaos

    Leave a Reply

    Your email address will not be published. Required fields are marked *

    This site uses Akismet to reduce spam. Learn how your comment data is processed.